  0
SECTION
  2
HEADER
  9
$ACADVER
  1
AC1015
  9
$ACADMAINTVER
 70
    20
  9
$DWGCODEPAGE
  3
ANSI_936
  9
$INSBASE
 10
0.0
 20
0.0
 30
0.0
  9
$EXTMIN
 10
1004.872716482474
 20
98.65404857499523
 30
0.0
  9
$EXTMAX
 10
1121.591464663966
 20
185.7543758390301
 30
0.0
  9
$LIMMIN
 10
0.0
 20
0.0
  9
$LIMMAX
 10
12.0
 20
9.0
  9
$ORTHOMODE
 70
     1
  9
$REGENMODE
 70
     1
  9
$FILLMODE
 70
     1
  9
$QTEXTMODE
 70
     0
  9
$MIRRTEXT
 70
     0
  9
$LTSCALE
 40
1.0
  9
$ATTMODE
 70
     1
  9
$TEXTSIZE
 40
0.2
  9
$TRACEWID
 40
0.05
  9
$TEXTSTYLE
  7
STANDARD
  9
$CLAYER
  8
标注
  9
$CELTYPE
  6
ByLayer
  9
$CECOLOR
 62
   256
  9
$CELTSCALE
 40
1.0
  9
$DISPSILH
 70
     0
  9
$DIMSCALE
 40
1.0
  9
$DIMASZ
 40
0.65
  9
$DIMEXO
 40
0.88
  9
$DIMDLI
 40
0.015
  9
$DIMRND
 40
0.0
  9
$DIMDLE
 40
0.0
  9
$DIMEXE
 40
0.32
  9
$DIMTP
 40
0.0
  9
$DIMTM
 40
0.0
  9
$DIMTXT
 40
0.65
  9
$DIMCEN
 40
0.09
  9
$DIMTSZ
 40
0.0
  9
$DIMTOL
 70
     0
  9
$DIMLIM
 70
     0
  9
$DIMTIH
 70
     0
  9
$DIMTOH
 70
     0
  9
$DIMSE1
 70
     0
  9
$DIMSE2
 70
     0
  9
$DIMTAD
 70
     0
  9
$DIMZIN
 70
     8
  9
$DIMBLK
  1

  9
$DIMASO
 70
     1
  9
$DIMSHO
 70
     1
  9
$DIMPOST
  1
"
  9
$DIMAPOST
  1
"
  9
$DIMALT
 70
     0
  9
$DIMALTD
 70
     1
  9
$DIMALTF
 40
0.03937
  9
$DIMLFAC
 40
1.0
  9
$DIMTOFL
 70
     1
  9
$DIMTVP
 40
0.0
  9
$DIMTIX
 70
     0
  9
$DIMSOXD
 70
     0
  9
$DIMSAH
 70
     0
  9
$DIMBLK1
  1

  9
$DIMBLK2
  1

  9
$DIMSTYLE
  2
副本STANDARD
  9
$DIMCLRD
 70
   256
  9
$DIMCLRE
 70
   256
  9
$DIMCLRT
 70
   256
  9
$DIMTFAC
 40
1.0
  9
$DIMGAP
 40
0.3
  9
$DIMJUST
 70
     0
  9
$DIMSD1
 70
     0
  9
$DIMSD2
 70
     0
  9
$DIMTOLJ
 70
     1
  9
$DIMTZIN
 70
     8
  9
$DIMALTZ
 70
     8
  9
$DIMALTTZ
 70
     8
  9
$DIMUPT
 70
     0
  9
$DIMDEC
 70
     3
  9
$DIMTDEC
 70
     3
  9
$DIMALTU
 70
     2
  9
$DIMALTTD
 70
     1
  9
$DIMTXSTY
  7
STANDARD
  9
$DIMAUNIT
 70
     0
  9
$DIMADEC
 70
     0
  9
$DIMALTRND
 40
0.0
  9
$DIMAZIN
 70
     0
  9
$DIMDSEP
 70
    46
  9
$DIMATFIT
 70
     3
  9
$DIMFRAC
 70
     2
  9
$DIMLDRBLK
  1

  9
$DIMLUNIT
 70
     5
  9
$DIMLWD
 70
    -2
  9
$DIMLWE
 70
    -2
  9
$DIMTMOVE
 70
     2
  9
$LUNITS
 70
     2
  9
$LUPREC
 70
     4
  9
$SKETCHINC
 40
0.1
  9
$FILLETRAD
 40
0.0
  9
$AUNITS
 70
     0
  9
$AUPREC
 70
     0
  9
$MENU
  1
.
  9
$ELEVATION
 40
0.0
  9
$PELEVATION
 40
0.0
  9
$THICKNESS
 40
0.0
  9
$LIMCHECK
 70
     0
  9
$CHAMFERA
 40
0.0
  9
$CHAMFERB
 40
0.0
  9
$CHAMFERC
 40
0.0
  9
$CHAMFERD
 40
0.0
  9
$SKPOLY
 70
     0
  9
$TDCREATE
 40
2455434.724808658
  9
$TDUCREATE
 40
2455434.391475324
  9
$TDUPDATE
 40
2458563.432796505
  9
$TDUUPDATE
 40
2458563.099463171
  9
$TDINDWG
 40
0.6158803356
  9
$TDUSRTIMER
 40
0.6158627894
  9
$USRTIMER
 70
     1
  9
$ANGBASE
 50
0.0
  9
$ANGDIR
 70
     0
  9
$PDMODE
 70
     0
  9
$PDSIZE
 40
0.0
  9
$PLINEWID
 40
0.0
  9
$SPLFRAME
 70
     0
  9
$SPLINETYPE
 70
     6
  9
$SPLINESEGS
 70
     8
  9
$HANDSEED
  5
746A
  9
$SURFTAB1
 70
     6
  9
$SURFTAB2
 70
     6
  9
$SURFTYPE
 70
     6
  9
$SURFU
 70
     6
  9
$SURFV
 70
     6
  9
$UCSBASE
  2

  9
$UCSNAME
  2

  9
$UCSORG
 10
0.0
 20
0.0
 30
0.0
  9
$UCSXDIR
 10
1.0
 20
0.0
 30
0.0
  9
$UCSYDIR
 10
0.0
 20
1.0
 30
0.0
  9
$UCSORTHOREF
  2

  9
$UCSORTHOVIEW
 70
     0
  9
$UCSORGTOP
 10
0.0
 20
0.0
 30
0.0
  9
$UCSORGBOTTOM
 10
0.0
 20
0.0
 30
0.0
  9
$UCSORGLEFT
 10
0.0
 20
0.0
 30
0.0
  9
$UCSORGRIGHT
 10
0.0
 20
0.0
 30
0.0
  9
$UCSORGFRONT
 10
0.0
 20
0.0
 30
0.0
  9
$UCSORGBACK
 10
0.0
 20
0.0
 30
0.0
  9
$PUCSBASE
  2

  9
$PUCSNAME
  2

  9
$PUCSORG
 10
0.0
 20
0.0
 30
0.0
  9
$PUCSXDIR
 10
1.0
 20
0.0
 30
0.0
  9
$PUCSYDIR
 10
0.0
 20
1.0
 30
0.0
  9
$PUCSORTHOREF
  2

  9
$PUCSORTHOVIEW
 70
     0
  9
$PUCSORGTOP
 10
0.0
 20
0.0
 30
0.0
  9
$PUCSORGBOTTOM
 10
0.0
 20
0.0
 30
0.0
  9
$PUCSORGLEFT
 10
0.0
 20
0.0
 30
0.0
  9
$PUCSORGRIGHT
 10
0.0
 20
0.0
 30
0.0
  9
$PUCSORGFRONT
 10
0.0
 20
0.0
 30
0.0
  9
$PUCSORGBACK
 10
0.0
 20
0.0
 30
0.0
  9
$USERI1
 70
     0
  9
$USERI2
 70
     0
  9
$USERI3
 70
     0
  9
$USERI4
 70
     0
  9
$USERI5
 70
     0
  9
$USERR1
 40
0.0
  9
$USERR2
 40
0.0
  9
$USERR3
 40
0.0
  9
$USERR4
 40
0.0
  9
$USERR5
 40
2.5
  9
$WORLDVIEW
 70
     1
  9
$SHADEDGE
 70
     3
  9
$SHADEDIF
 70
    70
  9
$TILEMODE
 70
     1
  9
$MAXACTVP
 70
    64
  9
$PINSBASE
 10
0.0
 20
0.0
 30
0.0
  9
$PLIMCHECK
 70
     0
  9
$PEXTMIN
 10
1.000000000000000E+20
 20
1.000000000000000E+20
 30
1.000000000000000E+20
  9
$PEXTMAX
 10
-1.000000000000000E+20
 20
-1.000000000000000E+20
 30
-1.000000000000000E+20
  9
$PLIMMIN
 10
0.0
 20
0.0
  9
$PLIMMAX
 10
12.0
 20
9.0
  9
$UNITMODE
 70
     0
  9
$VISRETAIN
 70
     1
  9
$PLINEGEN
 70
     0
  9
$PSLTSCALE
 70
     1
  9
$TREEDEPTH
 70
  3020
  9
$CMLSTYLE
  2
Standard
  9
$CMLJUST
 70
     0
  9
$CMLSCALE
 40
1.0
  9
$PROXYGRAPHICS
 70
     1
  9
$MEASUREMENT
 70
     0
  9
$CELWEIGHT
370
    -1
  9
$ENDCAPS
280
     0
  9
$JOINSTYLE
280
     0
  9
$LWDISPLAY
290
     0
  9
$INSUNITS
 70
     0
  9
$HYPERLINKBASE
  1

  9
$STYLESHEET
  1

  9
$XEDIT
290
     1
  9
$CEPSNTYPE
380
     0
  9
$PSTYLEMODE
290
     1
  9
$FINGERPRINTGUID
  2
{7BAC09DB-C4D0-41DB-8C07-4C6808ADD930}
  9
$VERSIONGUID
  2
{8C0BD658-93C2-4EFE-AEB4-3628E431EC30}
  9
$EXTNAMES
290
     1
  9
$PSVPSCALE
 40
0.0
  9
$OLESTARTUP
290
     0
  0
ENDSEC
  0
SECTION
  2
CLASSES
  0
CLASS
  1
ACDBDICTIONARYWDFLT
  2
AcDbDictionaryWithDefault
  3
ObjectDBX Classes
 90
        0
280
     0
281
     0
  0
CLASS
  1
MATERIAL
  2
AcDbMaterial
  3
ObjectDBX Classes
 90
     1153
280
     0
281
     0
  0
CLASS
  1
VISUALSTYLE
  2
AcDbVisualStyle
  3
ObjectDBX Classes
 90
     4095
280
     0
281
     0
  0
CLASS
  1
SCALE
  2
AcDbScale
  3
ObjectDBX Classes
 90
     1153
280
     0
281
     0
  0
CLASS
  1
TABLESTYLE
  2
AcDbTableStyle
  3
ObjectDBX Classes
 90
     4095
280
     0
281
     0
  0
CLASS
  1
MLEADERSTYLE
  2
AcDbMLeaderStyle
  3
ACDB_MLEADERSTYLE_CLASS
 90
     4095
280
     0
281
     0
  0
CLASS
  1
VLO-VL
  2
vlo_VL
  3
VL|AutoLISP based application
 90
      129
280
     0
281
     0
  0
CLASS
  1
DICTIONARYVAR
  2
AcDbDictionaryVar
  3
ObjectDBX Classes
 90
        0
280
     0
281
     0
  0
CLASS
  1
CELLSTYLEMAP
  2
AcDbCellStyleMap
  3
ObjectDBX Classes
 90
     1152
280
     0
281
     0
  0
CLASS
  1
DIMASSOC
  2
AcDbDimAssoc
  3
"AcDbDimAssoc|Product Desc:     AcDim ARX App For Dimension|Company:          Autodesk, Inc.|WEB Address:      www.autodesk.com"
 90
    32768
280
     0
281
     0
  0
CLASS
  1
SORTENTSTABLE
  2
AcDbSortentsTable
  3
ObjectDBX Classes
 90
        0
280
     0
281
     0
  0
CLASS
  1
ACDBPLACEHOLDER
  2
AcDbPlaceHolder
  3
ObjectDBX Classes
 90
        0
280
     0
281
     0
  0
CLASS
  1
LAYOUT
  2
AcDbLayout
  3
ObjectDBX Classes
 90
        0
280
     0
281
     0
  0
ENDSEC
  0
SECTION
  2
TABLES
  0
TABLE
  2
VPORT
  5
5F02
330
0
100
AcDbSymbolTable
 70
     1
  0
VPORT
  5
5F73
330
5F02
100
AcDbSymbolTableRecord
100
AcDbViewportTableRecord
  2
*ACTIVE
 70
     0
 10
0.0
 20
0.0
 11
1.0
 21
1.0
 12
1113.36965871968
 22
140.6932999873218
 13
0.0
 23
0.0
 14
0.5
 24
0.5
 15
0.5
 25
0.5
 16
0.0
 26
0.0
 36
1.0
 17
0.0
 27
0.0
 37
0.0
 40
88.87646704934946
 41
1.522756827048114
 42
50.0
 43
0.0
 44
0.0
 50
0.0
 51
0.0
 71
     0
 72
  1000
 73
     1
 74
     3
 75
     0
 76
     0
 77
     0
 78
     0
281
     0
 65
     1
110
0.0
120
0.0
130
0.0
111
1.0
121
0.0
131
0.0
112
0.0
122
1.0
132
0.0
 79
     0
146
0.0
  0
ENDTAB
  0
TABLE
  2
LTYPE
  5
5EFF
330
0
100
AcDbSymbolTable
 70
     3
  0
LTYPE
  5
5F5C
330
5EFF
100
AcDbSymbolTableRecord
100
AcDbLinetypeTableRecord
  2
ByBlock
 70
     0
  3

 72
    65
 73
     0
 40
0.0
  0
LTYPE
  5
5F5D
330
5EFF
100
AcDbSymbolTableRecord
100
AcDbLinetypeTableRecord
  2
ByLayer
 70
     0
  3

 72
    65
 73
     0
 40
0.0
  0
LTYPE
  5
5F5E
330
5EFF
100
AcDbSymbolTableRecord
100
AcDbLinetypeTableRecord
  2
CONTINUOUS
 70
     0
  3
Solid line
 72
    65
 73
     0
 40
0.0
  0
LTYPE
  5
5F74
330
5EFF
100
AcDbSymbolTableRecord
100
AcDbLinetypeTableRecord
  2
CENTER2
 70
     0
  3
Center (.5x) ___ _ ___ _ ___ _ ___ _ ___ _ ___
 72
    65
 73
     4
 40
28.575
 49
19.05
 74
     0
 49
-3.174999999999998
 74
     0
 49
3.174999999999998
 74
     0
 49
-3.174999999999998
 74
     0
  0
LTYPE
  5
5F75
330
5EFF
100
AcDbSymbolTableRecord
100
AcDbLinetypeTableRecord
  2
HIDDEN2
 70
     0
  3
Hidden (.5x) _ _ _ _ _ _ _ _ _ _ _ _ _ _ _ _ _
 72
    65
 73
     2
 40
4.762499999999998
 49
3.174999999999998
 74
     0
 49
-1.587499999999999
 74
     0
  0
ENDTAB
  0
TABLE
  2
LAYER
  5
5EFC
102
{ACAD_XDICTIONARY
360
61B7
102
}
330
0
100
AcDbSymbolTable
 70
     8
  0
LAYER
  5
5F56
102
{ACAD_XDICTIONARY
360
60F4
102
}
330
5EFC
100
AcDbSymbolTableRecord
100
AcDbLayerTableRecord
  2
0
 70
     0
 62
     7
  6
CONTINUOUS
370
    -3
390
5F09
  0
LAYER
  5
5F72
102
{ACAD_XDICTIONARY
360
60F6
102
}
330
5EFC
100
AcDbSymbolTableRecord
100
AcDbLayerTableRecord
  2
标注
 70
     0
 62
    80
  6
CONTINUOUS
370
    -3
390
5F09
  0
LAYER
  5
5F7D
102
{ACAD_XDICTIONARY
360
60F8
102
}
330
5EFC
100
AcDbSymbolTableRecord
100
AcDbLayerTableRecord
  2
中心线
 70
     0
 62
     1
  6
CENTER2
370
    -3
390
5F09
  0
LAYER
  5
5F7E
102
{ACAD_XDICTIONARY
360
60FA
102
}
330
5EFC
100
AcDbSymbolTableRecord
100
AcDbLayerTableRecord
  2
虚线
 70
     0
 62
     4
  6
HIDDEN2
370
    -3
390
5F09
  0
LAYER
  5
5F7F
330
5EFC
100
AcDbSymbolTableRecord
100
AcDbLayerTableRecord
  2
DEFPOINTS
 70
     0
 62
     7
  6
CONTINUOUS
290
     0
370
    -3
390
5F09
  0
LAYER
  5
5F80
102
{ACAD_XDICTIONARY
360
60FC
102
}
330
5EFC
100
AcDbSymbolTableRecord
100
AcDbLayerTableRecord
  2
细实线
 70
     0
 62
     7
  6
CONTINUOUS
370
    -3
390
5F09
  0
LAYER
  5
61B1
102
{ACAD_XDICTIONARY
360
61B2
102
}
330
5EFC
100
AcDbSymbolTableRecord
100
AcDbLayerTableRecord
  2
粗实线
 70
     0
 62
     7
  6
CONTINUOUS
370
    35
390
5F09
  0
LAYER
  5
6B9C
102
{ACAD_XDICTIONARY
360
6B9D
102
}
330
5EFC
100
AcDbSymbolTableRecord
100
AcDbLayerTableRecord
  2
截面层
 70
     0
 62
     6
  6
CONTINUOUS
370
    13
390
5F09
  0
ENDTAB
  0
TABLE
  2
STYLE
  5
5EFD
330
0
100
AcDbSymbolTable
 70
     2
  0
STYLE
  5
5F57
330
5EFD
100
AcDbSymbolTableRecord
100
AcDbTextStyleTableRecord
  2
STANDARD
 70
     0
 40
0.0
 41
1.0
 50
0.0
 71
     0
 42
0.2
  3
arial.ttf
  4

1001
ACAD
1000
Arial
1071
       34
  0
STYLE
  5
7201
330
5EFD
100
AcDbSymbolTableRecord
100
AcDbTextStyleTableRecord
  2
Arial
 70
     0
 40
0.0
 41
1.0
 50
0.0
 71
     0
 42
0.2
  3
arial.ttf
  4

1001
ACAD
1000
Arial
1071
       34
  0
ENDTAB
  0
TABLE
  2
VIEW
  5
5F00
330
0
100
AcDbSymbolTable
 70
     0
  0
ENDTAB
  0
TABLE
  2
UCS
  5
5F01
330
0
100
AcDbSymbolTable
 70
     0
  0
ENDTAB
  0
TABLE
  2
APPID
  5
5F03
330
0
100
AcDbSymbolTable
 70
    27
  0
APPID
  5
5F58
330
5F03
100
AcDbSymbolTableRecord
100
AcDbRegAppTableRecord
  2
ACAD
 70
     0
  0
APPID
  5
5F5F
330
5F03
100
AcDbSymbolTableRecord
100
AcDbRegAppTableRecord
  2
ACADANNOTATIVE
 70
     0
  0
APPID
  5
5F69
330
5F03
100
AcDbSymbolTableRecord
100
AcDbRegAppTableRecord
  2
ACAD_MLEADERVER
 70
     0
  0
APPID
  5
5F84
330
5F03
100
AcDbSymbolTableRecord
100
AcDbRegAppTableRecord
  2
ACAECLAYERSTANDARD
 70
     0
  0
APPID
  5
5F85
330
5F03
100
AcDbSymbolTableRecord
100
AcDbRegAppTableRecord
  2
ACAD_DSTYLE_DIMEXT_LENGTH
 70
     0
  0
APPID
  5
5F86
330
5F03
100
AcDbSymbolTableRecord
100
AcDbRegAppTableRecord
  2
ACAD_DSTYLE_DIMEXT_ENABLED
 70
     0
  0
APPID
  5
5F87
330
5F03
100
AcDbSymbolTableRecord
100
AcDbRegAppTableRecord
  2
ACAD_DSTYLE_DIMJOGGED_JOGA
 70
     0
  0
APPID
  5
5F88
330
5F03
100
AcDbSymbolTableRecord
100
AcDbRegAppTableRecord
  2
ACAD_DSTYLE_DIMARC_LENGTH_
 70
     0
  0
APPID
  5
5F89
330
5F03
100
AcDbSymbolTableRecord
100
AcDbRegAppTableRecord
  2
ACAD_PSEXT
 70
     0
  0
APPID
  5
5F8A
330
5F03
100
AcDbSymbolTableRecord
100
AcDbRegAppTableRecord
  2
MCAD_NO_VIS
 70
     0
  0
APPID
  5
5F8B
330
5F03
100
AcDbSymbolTableRecord
100
AcDbRegAppTableRecord
  2
ACAD_TEMP_GRAPHIC
 70
     0
  0
APPID
  5
5F8C
330
5F03
100
AcDbSymbolTableRecord
100
AcDbRegAppTableRecord
  2
AD_DRAW
 70
     0
  0
APPID
  5
5F8D
330
5F03
100
AcDbSymbolTableRecord
100
AcDbRegAppTableRecord
  2
ACATTRIBSERVICES
 70
     0
  0
APPID
  5
5F8E
330
5F03
100
AcDbSymbolTableRecord
100
AcDbRegAppTableRecord
  2
DESIGNERASSEMBLIES
 70
     0
  0
APPID
  5
5F8F
330
5F03
100
AcDbSymbolTableRecord
100
AcDbRegAppTableRecord
  2
ACADM_DIM_EDIT
 70
     0
  0
APPID
  5
5F90
330
5F03
100
AcDbSymbolTableRecord
100
AcDbRegAppTableRecord
  2
AMDT_DM_ADJ
 70
     0
  0
APPID
  5
5F91
330
5F03
100
AcDbSymbolTableRecord
100
AcDbRegAppTableRecord
  2
ACAD_DSTYLE_DIMJAG
 70
     0
  0
APPID
  5
5F92
330
5F03
100
AcDbSymbolTableRecord
100
AcDbRegAppTableRecord
  2
ACAD_DSTYLE_DIMBREAK
 70
     0
  0
APPID
  5
5F93
330
5F03
100
AcDbSymbolTableRecord
100
AcDbRegAppTableRecord
  2
ACAD_DSTYLE_DIMTALN
 70
     0
  0
APPID
  5
5F94
330
5F03
100
AcDbSymbolTableRecord
100
AcDbRegAppTableRecord
  2
GENIUS_GENODEF_13
 70
     0
  0
APPID
  5
5F95
330
5F03
100
AcDbSymbolTableRecord
100
AcDbRegAppTableRecord
  2
GENIUS_GENOBJ-N-FIL_13
 70
     0
  0
APPID
  5
5F96
330
5F03
100
AcDbSymbolTableRecord
100
AcDbRegAppTableRecord
  2
ACAD_EXEMPT_FROM_CAD_STANDARDS
 70
     0
  0
APPID
  5
5F97
330
5F03
100
AcDbSymbolTableRecord
100
AcDbRegAppTableRecord
  2
ACAD_DSTYLE_DIM_LINETYPE
 70
     0
  0
APPID
  5
5F98
330
5F03
100
AcDbSymbolTableRecord
100
AcDbRegAppTableRecord
  2
ACAD_DSTYLE_DIM_EXT1_LINETYPE
 70
     0
  0
APPID
  5
5F99
330
5F03
100
AcDbSymbolTableRecord
100
AcDbRegAppTableRecord
  2
ACAD_DSTYLE_DIM_EXT2_LINETYPE
 70
     0
  0
APPID
  5
5F9A
330
5F03
100
AcDbSymbolTableRecord
100
AcDbRegAppTableRecord
  2
ACAD_DSTYLE_DIMRADIAL_EXTENSION
 70
     0
  0
APPID
  5
6488
330
5F03
100
AcDbSymbolTableRecord
100
AcDbRegAppTableRecord
  2
AcadAnnoPO
 70
     0
  0
ENDTAB
  0
TABLE
  2
DIMSTYLE
  5
5F04
330
0
100
AcDbSymbolTable
 70
     6
100
AcDbDimStyleTable
 71
     2
340
5F9B
340
5F59
  0
DIMSTYLE
105
5F59
330
5F04
100
AcDbSymbolTableRecord
100
AcDbDimStyleTableRecord
  2
STANDARD
 70
     0
 41
0.65
 73
     0
 74
     0
140
0.65
176
     3
177
     3
178
     3
271
     3
272
     3
276
     2
277
     5
279
     2
284
     8
285
     8
286
     8
340
5F57
371
    13
372
    13
1001
ACAD_DSTYLE_DIMJAG
1070
   388
1040
1.5
1001
ACAD_DSTYLE_DIMTALN
1070
   392
1070
     0
1001
ACAD_DSTYLE_DIM_LINETYPE
1070
   380
1005
5F5E
1001
ACAD_DSTYLE_DIM_EXT1_LINETYPE
1070
   381
1005
5F5E
1001
ACAD_DSTYLE_DIM_EXT2_LINETYPE
1070
   382
1005
5F5E
  0
DIMSTYLE
105
5F9B
102
{ACAD_REACTORS
330
731D
330
732B
330
7339
330
7347
330
735F
330
7369
330
7384
330
7392
330
73A0
330
73AE
330
73BC
330
73CA
330
73D8
330
73E6
330
7408
330
742A
330
7434
102
}
330
5F04
100
AcDbSymbolTableRecord
100
AcDbDimStyleTableRecord
  2
副本STANDARD
 70
     0
  3
"
  4
"
 41
0.65
 42
0.88
 43
0.015
 44
0.32
 73
     0
 74
     0
 78
     8
140
0.65
143
0.03937
147
0.3
171
     1
172
     1
176
   256
177
   256
178
   256
271
     3
272
     3
274
     1
276
     2
277
     5
279
     2
284
     8
285
     8
286
     8
340
5F57
1001
ACAD_DSTYLE_DIMJAG
1070
   388
1040
1.5
1001
ACAD_DSTYLE_DIMTALN
1070
   392
1070
     0
  0
DIMSTYLE
105
6F8A
330
5F04
100
AcDbSymbolTableRecord
100
AcDbDimStyleTableRecord
  2
毫米英寸Standard
 70
     0
  3
mm
  4
"
 41
12.0
 42
18.0
 44
6.0
 73
     0
 74
     0
 78
     8
 79
     2
140
12.0
143
0.03937
147
6.0
170
     1
171
     3
172
     1
176
   256
177
   256
178
   256
179
     1
271
     1
272
     1
273
     7
274
     3
278
    44
340
5F57
1001
ACAD_DSTYLE_DIMBREAK
1070
   391
1040
0.125
1001
ACAD_DSTYLE_DIMJAG
1070
   388
1040
1.5
1001
ACAD_DSTYLE_DIMTALN
1070
   392
1070
     0
  0
DIMSTYLE
105
6F8B
330
5F04
100
AcDbSymbolTableRecord
100
AcDbDimStyleTableRecord
  2
中14+
 70
     0
  4
"
 41
14.0
 42
10.0
 43
1.0
 44
2.0
 73
     0
 74
     0
 78
     8
140
14.0
141
2.0
143
0.03937007874016
147
5.0
171
     3
172
     1
179
     1
271
     1
272
     1
273
     7
274
     3
278
    44
283
     0
284
     8
340
5F57
1001
ACAD_DSTYLE_DIMJAG
1070
   388
1040
1.5
1001
ACAD_DSTYLE_DIMBREAK
1070
   391
1040
0.2
1001
ACAD_DSTYLE_DIMTALN
1070
   392
1070
     0
  0
DIMSTYLE
105
6F8C
330
5F04
100
AcDbSymbolTableRecord
100
AcDbDimStyleTableRecord
  2
毫米英寸
 70
     0
  3
mm
  4
"
 41
18.0
 42
20.0
 43
3.75
 44
5.0
 45
0.0005
 73
     0
 74
     0
 78
     8
140
18.0
141
2.5
143
0.03937007874
147
2.0
170
     1
171
     3
172
     1
176
   256
177
   256
178
   256
179
     1
271
     1
272
     1
273
     7
274
     3
276
     2
283
     0
284
     8
285
    12
340
5F57
371
     9
372
     9
1001
ACAD_DSTYLE_DIMBREAK
1070
   391
1040
3.75
1001
ACAD_DSTYLE_DIMJAG
1070
   388
1040
1.5
1001
ACAD_DSTYLE_DIMTALN
1070
   392
1070
     0
1001
ACAD_DSTYLE_DIMEXT_LENGTH
1070
   378
1040
8.0
1001
ACAD_DSTYLE_DIM_LINETYPE
1070
   380
1005
5F5D
  0
DIMSTYLE
105
7202
330
5F04
100
AcDbSymbolTableRecord
100
AcDbDimStyleTableRecord
  2
英寸
 70
     0
  3
"
  4
"
 41
16.0
 42
22.0
 44
8.0
 73
     0
 74
     0
 78
     8
 79
     2
140
16.0
143
0.03937
144
0.03937007874
147
5.0
171
     3
172
     1
176
   256
177
   256
178
   256
179
     1
271
     3
272
     3
273
     7
274
     3
276
     2
277
     5
278
    44
340
7201
1001
ACAD_DSTYLE_DIMBREAK
1070
   391
1040
0.125
1001
ACAD_DSTYLE_DIMJAG
1070
   388
1040
1.5
1001
ACAD_DSTYLE_DIMTALN
1070
   392
1070
     0
1001
ACAD_DSTYLE_DIMEXT_LENGTH
1070
   378
1040
8.0
  0
ENDTAB
  0
TABLE
  2
BLOCK_RECORD
  5
5EFB
330
0
100
AcDbSymbolTable
 70
    48
  0
BLOCK_RECORD
  5
5F6E
102
{ACAD_XDICTIONARY
360
654F
102
}
330
5EFB
100
AcDbSymbolTableRecord
100
AcDbBlockTableRecord
  2
*Model_Space
340
5F71
  0
BLOCK_RECORD
  5
5F6A
330
5EFB
100
AcDbSymbolTableRecord
100
AcDbBlockTableRecord
  2
*Paper_Space
340
5F6D
  0
BLOCK_RECORD
  5
6D74
330
5EFB
100
AcDbSymbolTableRecord
100
AcDbBlockTableRecord
  2
*D0
340
0
  0
BLOCK_RECORD
  5
6D82
330
5EFB
100
AcDbSymbolTableRecord
100
AcDbBlockTableRecord
  2
*D1
340
0
  0
BLOCK_RECORD
  5
6D90
330
5EFB
100
AcDbSymbolTableRecord
100
AcDbBlockTableRecord
  2
*D2
340
0
  0
BLOCK_RECORD
  5
6DAF
330
5EFB
100
AcDbSymbolTableRecord
100
AcDbBlockTableRecord
  2
*D3
340
0
  0
BLOCK_RECORD
  5
6DB9
330
5EFB
100
AcDbSymbolTableRecord
100
AcDbBlockTableRecord
  2
*D4
340
0
  0
BLOCK_RECORD
  5
6DC3
330
5EFB
100
AcDbSymbolTableRecord
100
AcDbBlockTableRecord
  2
*D5
340
0
  0
BLOCK_RECORD
  5
6DF7
330
5EFB
100
AcDbSymbolTableRecord
100
AcDbBlockTableRecord
  2
*D6
340
0
  0
BLOCK_RECORD
  5
6E05
330
5EFB
100
AcDbSymbolTableRecord
100
AcDbBlockTableRecord
  2
*D7
340
0
  0
BLOCK_RECORD
  5
6E13
330
5EFB
100
AcDbSymbolTableRecord
100
AcDbBlockTableRecord
  2
*D8
340
0
  0
BLOCK_RECORD
  5
6E21
330
5EFB
100
AcDbSymbolTableRecord
100
AcDbBlockTableRecord
  2
*D9
340
0
  0
BLOCK_RECORD
  5
6E2F
330
5EFB
100
AcDbSymbolTableRecord
100
AcDbBlockTableRecord
  2
*D10
340
0
  0
BLOCK_RECORD
  5
6E3D
330
5EFB
100
AcDbSymbolTableRecord
100
AcDbBlockTableRecord
  2
*D11
340
0
  0
BLOCK_RECORD
  5
6E4B
330
5EFB
100
AcDbSymbolTableRecord
100
AcDbBlockTableRecord
  2
*D12
340
0
  0
BLOCK_RECORD
  5
6E59
330
5EFB
100
AcDbSymbolTableRecord
100
AcDbBlockTableRecord
  2
*D13
340
0
  0
BLOCK_RECORD
  5
6E7B
330
5EFB
100
AcDbSymbolTableRecord
100
AcDbBlockTableRecord
  2
*D14
340
0
  0
BLOCK_RECORD
  5
6E89
330
5EFB
100
AcDbSymbolTableRecord
100
AcDbBlockTableRecord
  2
*D15
340
0
  0
BLOCK_RECORD
  5
6E93
330
5EFB
100
AcDbSymbolTableRecord
100
AcDbBlockTableRecord
  2
*D16
340
0
  0
BLOCK_RECORD
  5
70CA
330
5EFB
100
AcDbSymbolTableRecord
100
AcDbBlockTableRecord
  2
*D18
340
0
  0
BLOCK_RECORD
  5
70D8
330
5EFB
100
AcDbSymbolTableRecord
100
AcDbBlockTableRecord
  2
*D19
340
0
  0
BLOCK_RECORD
  5
70E6
330
5EFB
100
AcDbSymbolTableRecord
100
AcDbBlockTableRecord
  2
*D20
340
0
  0
BLOCK_RECORD
  5
7101
330
5EFB
100
AcDbSymbolTableRecord
100
AcDbBlockTableRecord
  2
*D21
340
0
  0
BLOCK_RECORD
  5
710F
330
5EFB
100
AcDbSymbolTableRecord
100
AcDbBlockTableRecord
  2
*D22
340
0
  0
BLOCK_RECORD
  5
711D
330
5EFB
100
AcDbSymbolTableRecord
100
AcDbBlockTableRecord
  2
*D23
340
0
  0
BLOCK_RECORD
  5
712B
330
5EFB
100
AcDbSymbolTableRecord
100
AcDbBlockTableRecord
  2
*D24
340
0
  0
BLOCK_RECORD
  5
7139
330
5EFB
100
AcDbSymbolTableRecord
100
AcDbBlockTableRecord
  2
*D25
340
0
  0
BLOCK_RECORD
  5
7147
330
5EFB
100
AcDbSymbolTableRecord
100
AcDbBlockTableRecord
  2
*D26
340
0
  0
BLOCK_RECORD
  5
7155
330
5EFB
100
AcDbSymbolTableRecord
100
AcDbBlockTableRecord
  2
*D27
340
0
  0
BLOCK_RECORD
  5
7163
330
5EFB
100
AcDbSymbolTableRecord
100
AcDbBlockTableRecord
  2
*D28
340
0
  0
BLOCK_RECORD
  5
731E
330
5EFB
100
AcDbSymbolTableRecord
100
AcDbBlockTableRecord
  2
*D30
340
0
  0
BLOCK_RECORD
  5
732C
330
5EFB
100
AcDbSymbolTableRecord
100
AcDbBlockTableRecord
  2
*D31
340
0
  0
BLOCK_RECORD
  5
733A
330
5EFB
100
AcDbSymbolTableRecord
100
AcDbBlockTableRecord
  2
*D32
340
0
  0
BLOCK_RECORD
  5
7348
330
5EFB
100
AcDbSymbolTableRecord
100
AcDbBlockTableRecord
  2
*D33
340
0
  0
BLOCK_RECORD
  5
7360
330
5EFB
100
AcDbSymbolTableRecord
100
AcDbBlockTableRecord
  2
*D34
340
0
  0
BLOCK_RECORD
  5
736A
330
5EFB
100
AcDbSymbolTableRecord
100
AcDbBlockTableRecord
  2
*D35
340
0
  0
BLOCK_RECORD
  5
7385
330
5EFB
100
AcDbSymbolTableRecord
100
AcDbBlockTableRecord
  2
*D36
340
0
  0
BLOCK_RECORD
  5
7393
330
5EFB
100
AcDbSymbolTableRecord
100
AcDbBlockTableRecord
  2
*D37
340
0
  0
BLOCK_RECORD
  5
73A1
330
5EFB
100
AcDbSymbolTableRecord
100
AcDbBlockTableRecord
  2
*D38
340
0
  0
BLOCK_RECORD
  5
73AF
330
5EFB
100
AcDbSymbolTableRecord
100
AcDbBlockTableRecord
  2
*D39
340
0
  0
BLOCK_RECORD
  5
73BD
330
5EFB
100
AcDbSymbolTableRecord
100
AcDbBlockTableRecord
  2
*D40
340
0
  0
BLOCK_RECORD
  5
73CB
330
5EFB
100
AcDbSymbolTableRecord
100
AcDbBlockTableRecord
  2
*D41
340
0
  0
BLOCK_RECORD
  5
73D9
330
5EFB
100
AcDbSymbolTableRecord
100
AcDbBlockTableRecord
  2
*D42
340
0
  0
BLOCK_RECORD
  5
73E7
330
5EFB
100
AcDbSymbolTableRecord
100
AcDbBlockTableRecord
  2
*D43
340
0
  0
BLOCK_RECORD
  5
7409
330
5EFB
100
AcDbSymbolTableRecord
100
AcDbBlockTableRecord
  2
*D44
340
0
  0
BLOCK_RECORD
  5
7421
330
5EFB
100
AcDbSymbolTableRecord
100
AcDbBlockTableRecord
  2
*D45
340
0
  0
BLOCK_RECORD
  5
742B
330
5EFB
100
AcDbSymbolTableRecord
100
AcDbBlockTableRecord
  2
*D46
340
0
  0
BLOCK_RECORD
  5
7435
330
5EFB
100
AcDbSymbolTableRecord
100
AcDbBlockTableRecord
  2
*D47
340
0
  0
ENDTAB
  0
ENDSEC
  0
SECTION
  2
BLOCKS
  0
BLOCK
  5
5F6F
330
5F6E
100
AcDbEntity
  8
0
100
AcDbBlockBegin
  2
*Model_Space
 70
     0
 10
0.0
 20
0.0
 30
0.0
  3
*Model_Space
  1

  0
ENDBLK
  5
5F70
330
5F6E
100
AcDbEntity
  8
0
100
AcDbBlockEnd
  0
BLOCK
  5
5F6B
330
5F6A
100
AcDbEntity
 67
     1
  8
0
100
AcDbBlockBegin
  2
*Paper_Space
 70
     0
 10
0.0
 20
0.0
 30
0.0
  3
*Paper_Space
  1

  0
ENDBLK
  5
5F6C
330
5F6A
100
AcDbEntity
 67
     1
  8
0
100
AcDbBlockEnd
  0
BLOCK
  5
6D75
330
6D74
100
AcDbEntity
  8
0
100
AcDbBlockBegin
  2
*D0
 70
     1
 10
0.0
 20
0.0
 30
0.0
  3
*D0
  1

  0
LINE
  5
6EA8
330
6D74
100
AcDbEntity
  8
标注
370
    -2
100
AcDbLine
 10
1010.232169094564
 20
111.8880736471611
 30
0.0
 11
1010.232169094564
 21
109.3331919395887
 31
0.0
  0
LINE
  5
6EA9
330
6D74
100
AcDbEntity
  8
标注
370
    -2
100
AcDbLine
 10
1038.889649409404
 20
111.8880736471611
 30
0.0
 11
1038.889649409404
 21
109.3331919395887
 31
0.0
  0
LINE
  5
6EAA
330
6D74
100
AcDbEntity
  8
标注
370
    -2
100
AcDbLine
 10
1010.882169094564
 20
109.6531919395888
 30
0.0
 11
1022.872010889092
 21
109.6531919395888
 31
0.0
  0
LINE
  5
6EAB
330
6D74
100
AcDbEntity
  8
标注
370
    -2
100
AcDbLine
 10
1038.239649409404
 20
109.6531919395888
 30
0.0
 11
1026.249807614876
 21
109.6531919395888
 31
0.0
  0
SOLID
  5
6EAC
330
6D74
100
AcDbEntity
  8
标注
100
AcDbTrace
 10
1010.882169094564
 20
109.7615252729221
 30
0.0
 11
1010.882169094564
 21
109.5448586062554
 31
0.0
 12
1010.232169094564
 22
109.6531919395888
 32
0.0
 13
1010.232169094564
 23
109.6531919395888
 33
0.0
  0
SOLID
  5
6EAD
330
6D74
100
AcDbEntity
  8
标注
100
AcDbTrace
 10
1038.239649409404
 20
109.7615252729221
 30
0.0
 11
1038.239649409404
 21
109.5448586062554
 31
0.0
 12
1038.889649409404
 22
109.6531919395888
 32
0.0
 13
1038.889649409404
 23
109.6531919395888
 33
0.0
  0
MTEXT
  5
6EAE
330
6D74
100
AcDbEntity
  8
标注
100
AcDbMText
 10
1024.560909251984
 20
109.6531919395888
 30
0.0
 40
0.65
 41
0.0
 71
     5
 72
     1
  1
\A1;28 5/8"
 73
     1
 44
1.0
1001
ACAD
1000
MTEXTBEGIN
1070
    73
1070
     1
1070
    44
1040
1.0
1070
    74
1070
     0
1000
MTEXTEND
  0
POINT
  5
6EAF
330
6D74
100
AcDbEntity
  8
DEFPOINTS
 62
     0
100
AcDbPoint
 10
1010.232169094564
 20
112.7680736471611
 30
0.0
  0
POINT
  5
6EB0
330
6D74
100
AcDbEntity
  8
DEFPOINTS
 62
     0
100
AcDbPoint
 10
1038.889649409404
 20
112.7680736471611
 30
0.0
  0
POINT
  5
6EB1
330
6D74
100
AcDbEntity
  8
DEFPOINTS
 62
     0
100
AcDbPoint
 10
1038.889649409404
 20
109.6531919395888
 30
0.0
  0
ENDBLK
  5
6D76
330
6D74
100
AcDbEntity
  8
0
100
AcDbBlockEnd
  0
BLOCK
  5
6D83
330
6D82
100
AcDbEntity
  8
0
100
AcDbBlockBegin
  2
*D1
 70
     1
 10
0.0
 20
0.0
 30
0.0
  3
*D1
  1

  0
LINE
  5
6EB2
330
6D82
100
AcDbEntity
  8
标注
370
    -2
100
AcDbLine
 10
1039.297208464536
 20
112.2956327022929
 30
0.0
 11
1041.352195043713
 21
112.2956327022929
 31
0.0
  0
LINE
  5
6EB3
330
6D82
100
AcDbEntity
  8
标注
370
    -2
100
AcDbLine
 10
1039.297208464536
 20
128.4531130171908
 30
0.0
 11
1041.352195043713
 21
128.4531130171908
 31
0.0
  0
LINE
  5
6EB4
330
6D82
100
AcDbEntity
  8
标注
370
    -2
100
AcDbLine
 10
1041.032195043713
 20
112.9456327022929
 30
0.0
 11
1041.032195043713
 21
118.7216102403694
 31
0.0
  0
LINE
  5
6EB5
330
6D82
100
AcDbEntity
  8
标注
370
    -2
100
AcDbLine
 10
1041.032195043713
 20
127.8031130171908
 30
0.0
 11
1041.032195043713
 21
122.0271354791143
 31
0.0
  0
SOLID
  5
6EB6
330
6D82
100
AcDbEntity
  8
标注
100
AcDbTrace
 10
1040.92386171038
 20
112.9456327022929
 30
0.0
 11
1041.140528377046
 21
112.9456327022929
 31
0.0
 12
1041.032195043713
 22
112.2956327022929
 32
0.0
 13
1041.032195043713
 23
112.2956327022929
 33
0.0
  0
SOLID
  5
6EB7
330
6D82
100
AcDbEntity
  8
标注
100
AcDbTrace
 10
1040.92386171038
 20
127.8031130171908
 30
0.0
 11
1041.140528377046
 21
127.8031130171908
 31
0.0
 12
1041.032195043713
 22
128.4531130171908
 32
0.0
 13
1041.032195043713
 23
128.4531130171908
 33
0.0
  0
MTEXT
  5
6EB8
330
6D82
100
AcDbEntity
  8
标注
100
AcDbMText
 10
1041.032195043713
 20
120.374372859742
 30
0.0
 40
0.65
 41
0.0
 71
     5
 72
     1
  1
\A1;16 1/8"
 11
0.0000000000000001
 21
1.0
 31
0.0
 73
     1
 44
1.0
1001
ACAD
1000
MTEXTBEGIN
1070
    73
1070
     1
1070
    44
1040
1.0
1070
    74
1070
     0
1000
MTEXTEND
  0
POINT
  5
6EB9
330
6D82
100
AcDbEntity
  8
DEFPOINTS
 62
     0
100
AcDbPoint
 10
1038.417208464536
 20
112.2956327022929
 30
0.0
  0
POINT
  5
6EBA
330
6D82
100
AcDbEntity
  8
DEFPOINTS
 62
     0
100
AcDbPoint
 10
1038.417208464536
 20
128.4531130171908
 30
0.0
  0
POINT
  5
6EBB
330
6D82
100
AcDbEntity
  8
DEFPOINTS
 62
     0
100
AcDbPoint
 10
1041.032195043713
 20
128.4531130171908
 30
0.0
  0
ENDBLK
  5
6D84
330
6D82
100
AcDbEntity
  8
0
100
AcDbBlockEnd
  0
BLOCK
  5
6D91
330
6D90
100
AcDbEntity
  8
0
100
AcDbBlockBegin
  2
*D2
 70
     1
 10
0.0
 20
0.0
 30
0.0
  3
*D2
  1

  0
LINE
  5
6EBC
330
6D90
100
AcDbEntity
  8
标注
370
    -2
100
AcDbLine
 10
1009.824610039433
 20
112.2956327022929
 30
0.0
 11
1007.242350226264
 21
112.2956327022929
 31
0.0
  0
LINE
  5
6EBD
330
6D90
100
AcDbEntity
  8
标注
370
    -2
100
AcDbLine
 10
1009.824610039433
 20
130.4531130171908
 30
0.0
 11
1007.242350226264
 21
130.4531130171908
 31
0.0
  0
LINE
  5
6EBE
330
6D90
100
AcDbEntity
  8
标注
370
    -2
100
AcDbLine
 10
1007.562350226264
 20
112.9456327022929
 30
0.0
 11
1007.562350226264
 21
119.7216102403694
 31
0.0
  0
LINE
  5
6EBF
330
6D90
100
AcDbEntity
  8
标注
370
    -2
100
AcDbLine
 10
1007.562350226264
 20
129.8031130171908
 30
0.0
 11
1007.562350226264
 21
123.0271354791143
 31
0.0
  0
SOLID
  5
6EC0
330
6D90
100
AcDbEntity
  8
标注
100
AcDbTrace
 10
1007.45401689293
 20
112.9456327022929
 30
0.0
 11
1007.670683559597
 21
112.9456327022929
 31
0.0
 12
1007.562350226264
 22
112.2956327022929
 32
0.0
 13
1007.562350226264
 23
112.2956327022929
 33
0.0
  0
SOLID
  5
6EC1
330
6D90
100
AcDbEntity
  8
标注
100
AcDbTrace
 10
1007.45401689293
 20
129.8031130171908
 30
0.0
 11
1007.670683559597
 21
129.8031130171908
 31
0.0
 12
1007.562350226264
 22
130.4531130171908
 32
0.0
 13
1007.562350226264
 23
130.4531130171908
 33
0.0
  0
MTEXT
  5
6EC2
330
6D90
100
AcDbEntity
  8
标注
100
AcDbMText
 10
1007.562350226264
 20
121.374372859742
 30
0.0
 40
0.65
 41
0.0
 71
     5
 72
     1
  1
\A1;18 1/8"
 11
0.0000000000000001
 21
1.0
 31
0.0
 73
     1
 44
1.0
1001
ACAD
1000
MTEXTBEGIN
1070
    73
1070
     1
1070
    44
1040
1.0
1070
    74
1070
     0
1000
MTEXTEND
  0
POINT
  5
6EC3
330
6D90
100
AcDbEntity
  8
DEFPOINTS
 62
     0
100
AcDbPoint
 10
1010.704610039433
 20
112.2956327022929
 30
0.0
  0
POINT
  5
6EC4
330
6D90
100
AcDbEntity
  8
DEFPOINTS
 62
     0
100
AcDbPoint
 10
1010.704610039433
 20
130.4531130171908
 30
0.0
  0
POINT
  5
6EC5
330
6D90
100
AcDbEntity
  8
DEFPOINTS
 62
     0
100
AcDbPoint
 10
1007.562350226264
 20
130.4531130171908
 30
0.0
  0
ENDBLK
  5
6D92
330
6D90
100
AcDbEntity
  8
0
100
AcDbBlockEnd
  0
BLOCK
  5
6DB0
330
6DAF
100
AcDbEntity
  8
0
100
AcDbBlockBegin
  2
*D3
 70
     1
 10
0.0
 20
0.0
 30
0.0
  3
*D3
  1

  0
LINE
  5
6EC6
330
6DAF
100
AcDbEntity
  8
标注
370
    -2
100
AcDbLine
 10
1009.847727533964
 20
112.0430729253927
 30
0.0
 11
1009.351511112873
 21
111.6232285930035
 31
0.0
  0
MTEXT
  5
6EC7
330
6DAF
100
AcDbEntity
  8
标注
100
AcDbMText
 10
1008.121422579357
 20
111.0360046414869
 30
0.0
 40
0.65
 41
0.0
 71
     5
 72
     1
  1
\A1;4-R1/2"
 11
0.7634098786019735
 21
0.6459143575218933
 31
0.0
 73
     1
 44
1.0
1001
ACAD
1000
MTEXTBEGIN
1070
    73
1070
     1
1070
    44
1040
1.0
1070
    74
1070
     0
1000
MTEXTEND
  0
LINE
  5
6EC8
330
6DAF
100
AcDbEntity
  8
标注
370
    -2
100
AcDbLine
 10
1010.704610039433
 20
112.7680736471612
 30
0.0
 11
1010.343943955055
 21
112.462917257782
 31
0.0
  0
SOLID
  5
6EC9
330
6DAF
100
AcDbEntity
  8
标注
100
AcDbTrace
 10
1009.777753478566
 20
112.1257756622412
 30
0.0
 11
1009.917701589362
 21
111.9603701885441
 31
0.0
 12
1010.343943955055
 22
112.462917257782
 32
0.0
 13
1010.343943955055
 23
112.462917257782
 33
0.0
  0
POINT
  5
6ECA
330
6DAF
100
AcDbEntity
  8
DEFPOINTS
 62
     0
100
AcDbPoint
 10
1010.343943955055
 20
112.462917257782
 30
0.0
  0
POINT
  5
6ECB
330
6DAF
100
AcDbEntity
  8
DEFPOINTS
 62
     0
100
AcDbPoint
 10
1010.704610039433
 20
112.7680736471612
 30
0.0
  0
ENDBLK
  5
6DB1
330
6DAF
100
AcDbEntity
  8
0
100
AcDbBlockEnd
  0
BLOCK
  5
6DBA
330
6DB9
100
AcDbEntity
  8
0
100
AcDbBlockBegin
  2
*D4
 70
     1
 10
0.0
 20
0.0
 30
0.0
  3
*D4
  1

  0
LINE
  5
6ECC
330
6DB9
100
AcDbEntity
  8
标注
370
    -2
100
AcDbLine
 10
1024.545303572767
 20
130.9109248389289
 30
0.0
 11
1024.909030343582
 21
131.4496296153994
 31
0.0
  0
MTEXT
  5
6ECD
330
6DB9
100
AcDbEntity
  8
标注
100
AcDbMText
 10
1024.351579828208
 20
131.629011722406
 30
0.0
 40
0.65
 41
0.0
 71
     5
 72
     1
  1
\A1;R1/2"
 11
0.5595796474082685
 21
0.8287765791855113
 31
0.0
 73
     1
 44
1.0
1001
ACAD
1000
MTEXTBEGIN
1070
    73
1070
     1
1070
    44
1040
1.0
1070
    74
1070
     0
1000
MTEXTEND
  0
LINE
  5
6ECE
330
6DB9
100
AcDbEntity
  8
标注
370
    -2
100
AcDbLine
 10
1023.917208464594
 20
129.9806720722935
 30
0.0
 11
1024.181576801951
 21
130.3722200624584
 31
0.0
  0
SOLID
  5
6ECF
330
6DB9
100
AcDbEntity
  8
标注
100
AcDbTrace
 10
1024.455519443355
 20
130.9715459673982
 30
0.0
 11
1024.635087702178
 21
130.8503037104597
 31
0.0
 12
1024.181576801951
 22
130.3722200624584
 32
0.0
 13
1024.181576801951
 23
130.3722200624584
 33
0.0
  0
POINT
  5
6ED0
330
6DB9
100
AcDbEntity
  8
DEFPOINTS
 62
     0
100
AcDbPoint
 10
1024.181576801951
 20
130.3722200624584
 30
0.0
  0
POINT
  5
6ED1
330
6DB9
100
AcDbEntity
  8
DEFPOINTS
 62
     0
100
AcDbPoint
 10
1023.917208464594
 20
129.9806720722935
 30
0.0
  0
ENDBLK
  5
6DBB
330
6DB9
100
AcDbEntity
  8
0
100
AcDbBlockEnd
  0
BLOCK
  5
6DC4
330
6DC3
100
AcDbEntity
  8
0
100
AcDbBlockBegin
  2
*D5
 70
     1
 10
0.0
 20
0.0
 30
0.0
  3
*D5
  1

  0
LINE
  5
6ED2
330
6DC3
100
AcDbEntity
  8
标注
370
    -2
100
AcDbLine
 10
1024.076067768398
 20
128.0793094723327
 30
0.0
 11
1023.635583690926
 21
127.601320165451
 31
0.0
  0
MTEXT
  5
6ED3
330
6DC3
100
AcDbEntity
  8
标注
100
AcDbMText
 10
1023.402694570716
 20
128.2171821300071
 30
0.0
 40
0.65
 41
0.0
 71
     5
 72
     1
  1
\A1;R3/8"
 11
0.6776678114960707
 21
0.7353681644333852
 31
0.0
 73
     1
 44
1.0
1001
ACAD
1000
MTEXTBEGIN
1070
    73
1070
     1
1070
    44
1040
1.0
1070
    74
1070
     0
1000
MTEXTEND
  0
LINE
  5
6ED4
330
6DC3
100
AcDbEntity
  8
标注
370
    -2
100
AcDbLine
 10
1024.783350196852
 20
128.8468138045808
 30
0.0
 11
1024.51655184587
 21
128.5572987792144
 31
0.0
  0
SOLID
  5
6ED5
330
6DC3
100
AcDbEntity
  8
标注
100
AcDbTrace
 10
1023.996402883918
 20
128.1527234852448
 30
0.0
 11
1024.155732652878
 21
128.0058954594207
 31
0.0
 12
1024.51655184587
 22
128.5572987792144
 32
0.0
 13
1024.51655184587
 23
128.5572987792144
 33
0.0
  0
POINT
  5
6ED6
330
6DC3
100
AcDbEntity
  8
DEFPOINTS
 62
     0
100
AcDbPoint
 10
1024.51655184587
 20
128.5572987792144
 30
0.0
  0
POINT
  5
6ED7
330
6DC3
100
AcDbEntity
  8
DEFPOINTS
 62
     0
100
AcDbPoint
 10
1024.783350196852
 20
128.8468138045808
 30
0.0
  0
ENDBLK
  5
6DC5
330
6DC3
100
AcDbEntity
  8
0
100
AcDbBlockEnd
  0
BLOCK
  5
6DF8
330
6DF7
100
AcDbEntity
  8
0
100
AcDbBlockBegin
  2
*D6
 70
     1
 10
0.0
 20
0.0
 30
0.0
  3
*D6
  1

  0
LINE
  5
6ED8
330
6DF7
100
AcDbEntity
  8
标注
370
    -2
100
AcDbLine
 10
1009.710288124228
 20
146.5166919853646
 30
0.0
 11
1009.710288124228
 21
144.1295932028442
 31
0.0
  0
LINE
  5
6ED9
330
6DF7
100
AcDbEntity
  8
标注
370
    -2
100
AcDbLine
 10
1023.71028812417
 20
146.5166919853646
 30
0.0
 11
1023.71028812417
 21
144.1295932028442
 31
0.0
  0
LINE
  5
6EDA
330
6DF7
100
AcDbEntity
  8
标注
370
    -2
100
AcDbLine
 10
1010.360288124228
 20
144.4495932028441
 30
0.0
 11
1015.814824276995
 21
144.4495932028441
 31
0.0
  0
LINE
  5
6EDB
330
6DF7
100
AcDbEntity
  8
标注
370
    -2
100
AcDbLine
 10
1023.06028812417
 20
144.4495932028441
 30
0.0
 11
1017.605751971402
 21
144.4495932028441
 31
0.0
  0
SOLID
  5
6EDC
330
6DF7
100
AcDbEntity
  8
标注
100
AcDbTrace
 10
1010.360288124228
 20
144.5579265361775
 30
0.0
 11
1010.360288124228
 21
144.3412598695108
 31
0.0
 12
1009.710288124228
 22
144.4495932028441
 32
0.0
 13
1009.710288124228
 23
144.4495932028441
 33
0.0
  0
SOLID
  5
6EDD
330
6DF7
100
AcDbEntity
  8
标注
100
AcDbTrace
 10
1023.06028812417
 20
144.5579265361775
 30
0.0
 11
1023.06028812417
 21
144.3412598695108
 31
0.0
 12
1023.71028812417
 22
144.4495932028441
 32
0.0
 13
1023.71028812417
 23
144.4495932028441
 33
0.0
  0
MTEXT
  5
6EDE
330
6DF7
100
AcDbEntity
  8
标注
100
AcDbMText
 10
1016.710288124199
 20
144.4495932028441
 30
0.0
 40
0.65
 41
0.0
 71
     5
 72
     1
  1
\A1;14"
 73
     1
 44
1.0
1001
ACAD
1000
MTEXTBEGIN
1070
    73
1070
     1
1070
    44
1040
1.0
1070
    74
1070
     0
1000
MTEXTEND
  0
POINT
  5
6EDF
330
6DF7
100
AcDbEntity
  8
DEFPOINTS
 62
     0
100
AcDbPoint
 10
1009.710288124228
 20
147.3966919853646
 30
0.0
  0
POINT
  5
6EE0
330
6DF7
100
AcDbEntity
  8
DEFPOINTS
 62
     0
100
AcDbPoint
 10
1023.71028812417
 20
147.3966919853646
 30
0.0
  0
POINT
  5
6EE1
330
6DF7
100
AcDbEntity
  8
DEFPOINTS
 62
     0
100
AcDbPoint
 10
1023.71028812417
 20
144.4495932028441
 30
0.0
  0
ENDBLK
  5
6DF9
330
6DF7
100
AcDbEntity
  8
0
100
AcDbBlockEnd
  0
BLOCK
  5
6E06
330
6E05
100
AcDbEntity
  8
0
100
AcDbBlockBegin
  2
*D7
 70
     1
 10
0.0
 20
0.0
 30
0.0
  3
*D7
  1

  0
LINE
  5
6EE2
330
6E05
100
AcDbEntity
  8
标注
370
    -2
100
AcDbLine
 10
1024.71028812416
 20
146.5166919853546
 30
0.0
 11
1024.71028812416
 21
144.1295932028442
 31
0.0
  0
LINE
  5
6EE3
330
6E05
100
AcDbEntity
  8
标注
370
    -2
100
AcDbLine
 10
1038.210288124092
 20
146.5166919853837
 30
0.0
 11
1038.210288124092
 21
144.1295932028442
 31
0.0
  0
LINE
  5
6EE4
330
6E05
100
AcDbEntity
  8
标注
370
    -2
100
AcDbLine
 10
1025.36028812416
 20
144.4495932028441
 30
0.0
 11
1029.807525504754
 21
144.4495932028441
 31
0.0
  0
LINE
  5
6EE5
330
6E05
100
AcDbEntity
  8
标注
370
    -2
100
AcDbLine
 10
1037.560288124092
 20
144.4495932028441
 30
0.0
 11
1033.113050743498
 21
144.4495932028441
 31
0.0
  0
SOLID
  5
6EE6
330
6E05
100
AcDbEntity
  8
标注
100
AcDbTrace
 10
1025.36028812416
 20
144.5579265361775
 30
0.0
 11
1025.36028812416
 21
144.3412598695108
 31
0.0
 12
1024.71028812416
 22
144.4495932028441
 32
0.0
 13
1024.71028812416
 23
144.4495932028441
 33
0.0
  0
SOLID
  5
6EE7
330
6E05
100
AcDbEntity
  8
标注
100
AcDbTrace
 10
1037.560288124092
 20
144.5579265361775
 30
0.0
 11
1037.560288124092
 21
144.3412598695108
 31
0.0
 12
1038.210288124092
 22
144.4495932028441
 32
0.0
 13
1038.210288124092
 23
144.4495932028441
 33
0.0
  0
MTEXT
  5
6EE8
330
6E05
100
AcDbEntity
  8
标注
100
AcDbMText
 10
1031.460288124126
 20
144.4495932028441
 30
0.0
 40
0.65
 41
0.0
 71
     5
 72
     1
  1
\A1;13 1/2"
 73
     1
 44
1.0
1001
ACAD
1000
MTEXTBEGIN
1070
    73
1070
     1
1070
    44
1040
1.0
1070
    74
1070
     0
1000
MTEXTEND
  0
POINT
  5
6EE9
330
6E05
100
AcDbEntity
  8
DEFPOINTS
 62
     0
100
AcDbPoint
 10
1024.71028812416
 20
147.3966919853546
 30
0.0
  0
POINT
  5
6EEA
330
6E05
100
AcDbEntity
  8
DEFPOINTS
 62
     0
100
AcDbPoint
 10
1038.210288124092
 20
147.3966919853836
 30
0.0
  0
POINT
  5
6EEB
330
6E05
100
AcDbEntity
  8
DEFPOINTS
 62
     0
100
AcDbPoint
 10
1038.210288124092
 20
144.4495932028441
 30
0.0
  0
ENDBLK
  5
6E07
330
6E05
100
AcDbEntity
  8
0
100
AcDbBlockEnd
  0
BLOCK
  5
6E14
330
6E13
100
AcDbEntity
  8
0
100
AcDbBlockBegin
  2
*D8
 70
     1
 10
0.0
 20
0.0
 30
0.0
  3
*D8
  1

  0
LINE
  5
6EEC
330
6E13
100
AcDbEntity
  8
标注
370
    -2
100
AcDbLine
 10
1008.710288124228
 20
146.0886773052326
 30
0.0
 11
1008.710288124228
 21
142.3791019304778
 31
0.0
  0
LINE
  5
6EED
330
6E13
100
AcDbEntity
  8
标注
370
    -2
100
AcDbLine
 10
1039.210288124111
 20
146.0886773052326
 30
0.0
 11
1039.210288124111
 21
142.3791019304778
 31
0.0
  0
LINE
  5
6EEE
330
6E13
100
AcDbEntity
  8
标注
370
    -2
100
AcDbLine
 10
1009.360288124228
 20
142.6991019304778
 30
0.0
 11
1022.277153744906
 21
142.6991019304778
 31
0.0
  0
LINE
  5
6EEF
330
6E13
100
AcDbEntity
  8
标注
370
    -2
100
AcDbLine
 10
1038.560288124111
 20
142.6991019304778
 30
0.0
 11
1025.643422503433
 21
142.6991019304778
 31
0.0
  0
SOLID
  5
6EF0
330
6E13
100
AcDbEntity
  8
标注
100
AcDbTrace
 10
1009.360288124228
 20
142.8074352638111
 30
0.0
 11
1009.360288124228
 21
142.5907685971445
 31
0.0
 12
1008.710288124228
 22
142.6991019304778
 32
0.0
 13
1008.710288124228
 23
142.6991019304778
 33
0.0
  0
SOLID
  5
6EF1
330
6E13
100
AcDbEntity
  8
标注
100
AcDbTrace
 10
1038.560288124111
 20
142.8074352638111
 30
0.0
 11
1038.560288124111
 21
142.5907685971445
 31
0.0
 12
1039.210288124111
 22
142.6991019304778
 32
0.0
 13
1039.210288124111
 23
142.6991019304778
 33
0.0
  0
MTEXT
  5
6EF2
330
6E13
100
AcDbEntity
  8
标注
100
AcDbMText
 10
1023.96028812417
 20
142.6991019304778
 30
0.0
 40
0.65
 41
0.0
 71
     5
 72
     1
  1
\A1;30 1/2"
 73
     1
 44
1.0
1001
ACAD
1000
MTEXTBEGIN
1070
    73
1070
     1
1070
    44
1040
1.0
1070
    74
1070
     0
1000
MTEXTEND
  0
POINT
  5
6EF3
330
6E13
100
AcDbEntity
  8
DEFPOINTS
 62
     0
100
AcDbPoint
 10
1008.710288124228
 20
146.9686773052325
 30
0.0
  0
POINT
  5
6EF4
330
6E13
100
AcDbEntity
  8
DEFPOINTS
 62
     0
100
AcDbPoint
 10
1039.210288124111
 20
146.9686773052325
 30
0.0
  0
POINT
  5
6EF5
330
6E13
100
AcDbEntity
  8
DEFPOINTS
 62
     0
100
AcDbPoint
 10
1039.210288124111
 20
142.6991019304778
 30
0.0
  0
ENDBLK
  5
6E15
330
6E13
100
AcDbEntity
  8
0
100
AcDbBlockEnd
  0
BLOCK
  5
6E22
330
6E21
100
AcDbEntity
  8
0
100
AcDbBlockBegin
  2
*D9
 70
     1
 10
0.0
 20
0.0
 30
0.0
  3
*D9
  1

  0
LINE
  5
6EF6
330
6E21
100
AcDbEntity
  8
标注
370
    -2
100
AcDbLine
 10
1038.696587336692
 20
147.0029911979454
 30
0.0
 11
1041.364624893784
 21
147.0029911979454
 31
0.0
  0
LINE
  5
6EF7
330
6E21
100
AcDbEntity
  8
标注
370
    -2
100
AcDbLine
 10
1038.696587336692
 20
163.002991197897
 30
0.0
 11
1041.364624893784
 21
163.002991197897
 31
0.0
  0
LINE
  5
6EF8
330
6E21
100
AcDbEntity
  8
标注
370
    -2
100
AcDbLine
 10
1041.044624893784
 20
147.6529911979454
 30
0.0
 11
1041.044624893784
 21
154.1075273507179
 31
0.0
  0
LINE
  5
6EF9
330
6E21
100
AcDbEntity
  8
标注
370
    -2
100
AcDbLine
 10
1041.044624893784
 20
162.3529911978971
 30
0.0
 11
1041.044624893784
 21
155.8984550451244
 31
0.0
  0
SOLID
  5
6EFA
330
6E21
100
AcDbEntity
  8
标注
100
AcDbTrace
 10
1040.93629156045
 20
147.6529911979454
 30
0.0
 11
1041.152958227117
 21
147.6529911979454
 31
0.0
 12
1041.044624893784
 22
147.0029911979454
 32
0.0
 13
1041.044624893784
 23
147.0029911979454
 33
0.0
  0
SOLID
  5
6EFB
330
6E21
100
AcDbEntity
  8
标注
100
AcDbTrace
 10
1040.93629156045
 20
162.3529911978971
 30
0.0
 11
1041.152958227117
 21
162.3529911978971
 31
0.0
 12
1041.044624893784
 22
163.002991197897
 32
0.0
 13
1041.044624893784
 23
163.002991197897
 33
0.0
  0
MTEXT
  5
6EFC
330
6E21
100
AcDbEntity
  8
标注
100
AcDbMText
 10
1041.044624893784
 20
155.0029911979214
 30
0.0
 40
0.65
 41
0.0
 71
     5
 72
     1
  1
\A1;16"
 11
0.0000000000000001
 21
1.0
 31
0.0
 73
     1
 44
1.0
1001
ACAD
1000
MTEXTBEGIN
1070
    73
1070
     1
1070
    44
1040
1.0
1070
    74
1070
     0
1000
MTEXTEND
  0
POINT
  5
6EFD
330
6E21
100
AcDbEntity
  8
DEFPOINTS
 62
     0
100
AcDbPoint
 10
1037.816587336692
 20
147.0029911979454
 30
0.0
  0
POINT
  5
6EFE
330
6E21
100
AcDbEntity
  8
DEFPOINTS
 62
     0
100
AcDbPoint
 10
1037.816587336692
 20
163.002991197897
 30
0.0
  0
POINT
  5
6EFF
330
6E21
100
AcDbEntity
  8
DEFPOINTS
 62
     0
100
AcDbPoint
 10
1041.044624893784
 20
163.002991197897
 30
0.0
  0
ENDBLK
  5
6E23
330
6E21
100
AcDbEntity
  8
0
100
AcDbBlockEnd
  0
BLOCK
  5
6E30
330
6E2F
100
AcDbEntity
  8
0
100
AcDbBlockBegin
  2
*D10
 70
     1
 10
0.0
 20
0.0
 30
0.0
  3
*D10
  1

  0
LINE
  5
6F00
330
6E2F
100
AcDbEntity
  8
标注
370
    -2
100
AcDbLine
 10
1039.090288124092
 20
146.0029911979454
 30
0.0
 11
1043.101448051936
 21
146.0029911979454
 31
0.0
  0
LINE
  5
6F01
330
6E2F
100
AcDbEntity
  8
标注
370
    -2
100
AcDbLine
 10
1039.090288124092
 20
164.0029911978872
 30
0.0
 11
1043.101448051936
 21
164.0029911978872
 31
0.0
  0
LINE
  5
6F02
330
6E2F
100
AcDbEntity
  8
标注
370
    -2
100
AcDbLine
 10
1042.781448051936
 20
146.6529911979454
 30
0.0
 11
1042.781448051936
 21
154.107527350713
 31
0.0
  0
LINE
  5
6F03
330
6E2F
100
AcDbEntity
  8
标注
370
    -2
100
AcDbLine
 10
1042.781448051936
 20
163.3529911978872
 30
0.0
 11
1042.781448051936
 21
155.8984550451195
 31
0.0
  0
SOLID
  5
6F04
330
6E2F
100
AcDbEntity
  8
标注
100
AcDbTrace
 10
1042.673114718603
 20
146.6529911979454
 30
0.0
 11
1042.88978138527
 21
146.6529911979454
 31
0.0
 12
1042.781448051936
 22
146.0029911979454
 32
0.0
 13
1042.781448051936
 23
146.0029911979454
 33
0.0
  0
SOLID
  5
6F05
330
6E2F
100
AcDbEntity
  8
标注
100
AcDbTrace
 10
1042.673114718603
 20
163.3529911978872
 30
0.0
 11
1042.88978138527
 21
163.3529911978872
 31
0.0
 12
1042.781448051936
 22
164.0029911978872
 32
0.0
 13
1042.781448051936
 23
164.0029911978872
 33
0.0
  0
MTEXT
  5
6F06
330
6E2F
100
AcDbEntity
  8
标注
100
AcDbMText
 10
1042.781448051936
 20
155.0029911979164
 30
0.0
 40
0.65
 41
0.0
 71
     5
 72
     1
  1
\A1;18"
 11
0.0000000000000001
 21
1.0
 31
0.0
 73
     1
 44
1.0
1001
ACAD
1000
MTEXTBEGIN
1070
    73
1070
     1
1070
    44
1040
1.0
1070
    74
1070
     0
1000
MTEXTEND
  0
POINT
  5
6F07
330
6E2F
100
AcDbEntity
  8
DEFPOINTS
 62
     0
100
AcDbPoint
 10
1038.210288124092
 20
146.0029911979454
 30
0.0
  0
POINT
  5
6F08
330
6E2F
100
AcDbEntity
  8
DEFPOINTS
 62
     0
100
AcDbPoint
 10
1038.210288124092
 20
164.0029911978872
 30
0.0
  0
POINT
  5
6F09
330
6E2F
100
AcDbEntity
  8
DEFPOINTS
 62
     0
100
AcDbPoint
 10
1042.781448051936
 20
164.0029911978872
 30
0.0
  0
ENDBLK
  5
6E31
330
6E2F
100
AcDbEntity
  8
0
100
AcDbBlockEnd
  0
BLOCK
  5
6E3E
330
6E3D
100
AcDbEntity
  8
0
100
AcDbBlockBegin
  2
*D11
 70
     1
 10
0.0
 20
0.0
 30
0.0
  3
*D11
  1

  0
LINE
  5
6F0A
330
6E3D
100
AcDbEntity
  8
标注
370
    -2
100
AcDbLine
 10
1009.223988911618
 20
147.0029911979454
 30
0.0
 11
1006.745418273095
 21
147.0029911979454
 31
0.0
  0
LINE
  5
6F0B
330
6E3D
100
AcDbEntity
  8
标注
370
    -2
100
AcDbLine
 10
1009.223988911618
 20
165.0029911978872
 30
0.0
 11
1006.745418273095
 21
165.0029911978872
 31
0.0
  0
LINE
  5
6F0C
330
6E3D
100
AcDbEntity
  8
标注
370
    -2
100
AcDbLine
 10
1007.065418273095
 20
147.6529911979454
 30
0.0
 11
1007.065418273095
 21
155.107527350713
 31
0.0
  0
LINE
  5
6F0D
330
6E3D
100
AcDbEntity
  8
标注
370
    -2
100
AcDbLine
 10
1007.065418273095
 20
164.3529911978871
 30
0.0
 11
1007.065418273095
 21
156.8984550451195
 31
0.0
  0
SOLID
  5
6F0E
330
6E3D
100
AcDbEntity
  8
标注
100
AcDbTrace
 10
1006.957084939761
 20
147.6529911979454
 30
0.0
 11
1007.173751606428
 21
147.6529911979454
 31
0.0
 12
1007.065418273095
 22
147.0029911979454
 32
0.0
 13
1007.065418273095
 23
147.0029911979454
 33
0.0
  0
SOLID
  5
6F0F
330
6E3D
100
AcDbEntity
  8
标注
100
AcDbTrace
 10
1006.957084939761
 20
164.3529911978871
 30
0.0
 11
1007.173751606428
 21
164.3529911978871
 31
0.0
 12
1007.065418273095
 22
165.0029911978872
 32
0.0
 13
1007.065418273095
 23
165.0029911978872
 33
0.0
  0
MTEXT
  5
6F10
330
6E3D
100
AcDbEntity
  8
标注
100
AcDbMText
 10
1007.065418273095
 20
156.0029911979164
 30
0.0
 40
0.65
 41
0.0
 71
     5
 72
     1
  1
\A1;18"
 11
0.0000000000000001
 21
1.0
 31
0.0
 73
     1
 44
1.0
1001
ACAD
1000
MTEXTBEGIN
1070
    73
1070
     1
1070
    44
1040
1.0
1070
    74
1070
     0
1000
MTEXTEND
  0
POINT
  5
6F11
330
6E3D
100
AcDbEntity
  8
DEFPOINTS
 62
     0
100
AcDbPoint
 10
1010.103988911618
 20
147.0029911979454
 30
0.0
  0
POINT
  5
6F12
330
6E3D
100
AcDbEntity
  8
DEFPOINTS
 62
     0
100
AcDbPoint
 10
1010.103988911618
 20
165.0029911978872
 30
0.0
  0
POINT
  5
6F13
330
6E3D
100
AcDbEntity
  8
DEFPOINTS
 62
     0
100
AcDbPoint
 10
1007.065418273095
 20
165.0029911978872
 30
0.0
  0
ENDBLK
  5
6E3F
330
6E3D
100
AcDbEntity
  8
0
100
AcDbBlockEnd
  0
BLOCK
  5
6E4C
330
6E4B
100
AcDbEntity
  8
0
100
AcDbBlockBegin
  2
*D12
 70
     1
 10
0.0
 20
0.0
 30
0.0
  3
*D12
  1

  0
LINE
  5
6F14
330
6E4B
100
AcDbEntity
  8
标注
370
    -2
100
AcDbLine
 10
1008.830288124228
 20
146.0029911979454
 30
0.0
 11
1005.055291516582
 21
146.0029911979454
 31
0.0
  0
LINE
  5
6F15
330
6E4B
100
AcDbEntity
  8
标注
370
    -2
100
AcDbLine
 10
1008.830288124228
 20
166.002991197858
 30
0.0
 11
1005.055291516582
 21
166.002991197858
 31
0.0
  0
LINE
  5
6F16
330
6E4B
100
AcDbEntity
  8
标注
370
    -2
100
AcDbLine
 10
1005.375291516581
 20
146.6529911979454
 30
0.0
 11
1005.375291516581
 21
155.0713916071785
 31
0.0
  0
LINE
  5
6F17
330
6E4B
100
AcDbEntity
  8
标注
370
    -2
100
AcDbLine
 10
1005.375291516581
 20
165.352991197858
 30
0.0
 11
1005.375291516581
 21
156.9345907886248
 31
0.0
  0
SOLID
  5
6F18
330
6E4B
100
AcDbEntity
  8
标注
100
AcDbTrace
 10
1005.266958183248
 20
146.6529911979454
 30
0.0
 11
1005.483624849915
 21
146.6529911979454
 31
0.0
 12
1005.375291516581
 22
146.0029911979454
 32
0.0
 13
1005.375291516581
 23
146.0029911979454
 33
0.0
  0
SOLID
  5
6F19
330
6E4B
100
AcDbEntity
  8
标注
100
AcDbTrace
 10
1005.266958183248
 20
165.352991197858
 30
0.0
 11
1005.483624849915
 21
165.352991197858
 31
0.0
 12
1005.375291516581
 22
166.002991197858
 32
0.0
 13
1005.375291516581
 23
166.002991197858
 33
0.0
  0
MTEXT
  5
6F1A
330
6E4B
100
AcDbEntity
  8
标注
100
AcDbMText
 10
1005.375291516581
 20
156.0029911979019
 30
0.0
 40
0.65
 41
0.0
 71
     5
 72
     1
  1
\A1;20"
 11
0.0000000000000001
 21
1.0
 31
0.0
 73
     1
 44
1.0
1001
ACAD
1000
MTEXTBEGIN
1070
    73
1070
     1
1070
    44
1040
1.0
1070
    74
1070
     0
1000
MTEXTEND
  0
POINT
  5
6F1B
330
6E4B
100
AcDbEntity
  8
DEFPOINTS
 62
     0
100
AcDbPoint
 10
1009.710288124228
 20
146.0029911979454
 30
0.0
  0
POINT
  5
6F1C
330
6E4B
100
AcDbEntity
  8
DEFPOINTS
 62
     0
100
AcDbPoint
 10
1009.710288124228
 20
166.002991197858
 30
0.0
  0
POINT
  5
6F1D
330
6E4B
100
AcDbEntity
  8
DEFPOINTS
 62
     0
100
AcDbPoint
 10
1005.375291516581
 20
166.002991197858
 30
0.0
  0
ENDBLK
  5
6E4D
330
6E4B
100
AcDbEntity
  8
0
100
AcDbBlockEnd
  0
BLOCK
  5
6E5A
330
6E59
100
AcDbEntity
  8
0
100
AcDbBlockBegin
  2
*D13
 70
     1
 10
0.0
 20
0.0
 30
0.0
  3
*D13
  1

  0
LINE
  5
6F1E
330
6E59
100
AcDbEntity
  8
标注
370
    -2
100
AcDbLine
 10
1040.090288124112
 20
185.7543758390301
 30
0.0
 11
1040.994697748532
 21
185.7543758390301
 31
0.0
  0
LINE
  5
6F1F
330
6E59
100
AcDbEntity
  8
标注
370
    -2
100
AcDbLine
 10
1038.725723289982
 20
177.8161041855118
 30
0.0
 11
1040.994697748532
 21
177.8161041855118
 31
0.0
  0
LINE
  5
6F20
330
6E59
100
AcDbEntity
  8
标注
370
    -2
100
AcDbLine
 10
1040.674697748531
 20
185.10437583903
 30
0.0
 11
1040.674697748531
 21
182.4592338731168
 31
0.0
  0
LINE
  5
6F21
330
6E59
100
AcDbEntity
  8
标注
370
    -2
100
AcDbLine
 10
1040.674697748531
 20
178.4661041855118
 30
0.0
 11
1040.674697748531
 21
181.1112461514251
 31
0.0
  0
SOLID
  5
6F22
330
6E59
100
AcDbEntity
  8
标注
100
AcDbTrace
 10
1040.566364415198
 20
185.10437583903
 30
0.0
 11
1040.783031081865
 21
185.10437583903
 31
0.0
 12
1040.674697748531
 22
185.7543758390301
 32
0.0
 13
1040.674697748531
 23
185.7543758390301
 33
0.0
  0
SOLID
  5
6F23
330
6E59
100
AcDbEntity
  8
标注
100
AcDbTrace
 10
1040.566364415198
 20
178.4661041855118
 30
0.0
 11
1040.783031081865
 21
178.4661041855118
 31
0.0
 12
1040.674697748531
 22
177.8161041855118
 32
0.0
 13
1040.674697748531
 23
177.8161041855118
 33
0.0
  0
MTEXT
  5
6F24
330
6E59
100
AcDbEntity
  8
标注
100
AcDbMText
 10
1040.674697748531
 20
181.7852400122711
 30
0.0
 40
0.65
 41
0.0
 71
     5
 72
     1
  1
\A1;8"
 11
0.0000000000000001
 21
1.0
 31
0.0
 73
     1
 44
1.0
1001
ACAD
1000
MTEXTBEGIN
1070
    73
1070
     1
1070
    44
1040
1.0
1070
    74
1070
     0
1000
MTEXTEND
  0
POINT
  5
6F25
330
6E59
100
AcDbEntity
  8
DEFPOINTS
 62
     0
100
AcDbPoint
 10
1039.210288124111
 20
185.7543758390301
 30
0.0
  0
POINT
  5
6F26
330
6E59
100
AcDbEntity
  8
DEFPOINTS
 62
     0
100
AcDbPoint
 10
1037.845723289982
 20
177.8161041855118
 30
0.0
  0
POINT
  5
6F27
330
6E59
100
AcDbEntity
  8
DEFPOINTS
 62
     0
100
AcDbPoint
 10
1040.674697748531
 20
177.8161041855118
 30
0.0
  0
ENDBLK
  5
6E5B
330
6E59
100
AcDbEntity
  8
0
100
AcDbBlockEnd
  0
BLOCK
  5
6E7C
330
6E7B
100
AcDbEntity
  8
0
100
AcDbBlockBegin
  2
*D14
 70
     1
 10
0.0
 20
0.0
 30
0.0
  3
*D14
  1

  0
LINE
  5
6F28
330
6E7B
100
AcDbEntity
  8
标注
370
    -2
100
AcDbLine
 10
1007.830288124548
 20
185.7543758390301
 30
0.0
 11
1006.362053868092
 21
185.7543758390301
 31
0.0
  0
LINE
  5
6F29
330
6E7B
100
AcDbEntity
  8
标注
370
    -2
100
AcDbLine
 10
1007.830288124548
 20
176.7543758390301
 30
0.0
 11
1006.362053868092
 21
176.7543758390301
 31
0.0
  0
LINE
  5
6F2A
330
6E7B
100
AcDbEntity
  8
标注
370
    -2
100
AcDbLine
 10
1006.682053868092
 20
185.10437583903
 30
0.0
 11
1006.682053868092
 21
181.9279263165199
 31
0.0
  0
LINE
  5
6F2B
330
6E7B
100
AcDbEntity
  8
标注
370
    -2
100
AcDbLine
 10
1006.682053868092
 20
177.4043758390301
 30
0.0
 11
1006.682053868092
 21
180.5808253615404
 31
0.0
  0
SOLID
  5
6F2C
330
6E7B
100
AcDbEntity
  8
标注
100
AcDbTrace
 10
1006.573720534758
 20
185.10437583903
 30
0.0
 11
1006.790387201425
 21
185.10437583903
 31
0.0
 12
1006.682053868092
 22
185.7543758390301
 32
0.0
 13
1006.682053868092
 23
185.7543758390301
 33
0.0
  0
SOLID
  5
6F2D
330
6E7B
100
AcDbEntity
  8
标注
100
AcDbTrace
 10
1006.573720534758
 20
177.4043758390301
 30
0.0
 11
1006.790387201425
 21
177.4043758390301
 31
0.0
 12
1006.682053868092
 22
176.7543758390301
 32
0.0
 13
1006.682053868092
 23
176.7543758390301
 33
0.0
  0
MTEXT
  5
6F2E
330
6E7B
100
AcDbEntity
  8
标注
100
AcDbMText
 10
1006.682053868092
 20
181.2543758390303
 30
0.0
 40
0.65
 41
0.0
 71
     5
 72
     1
  1
\A1;9"
 11
0.0000000000000001
 21
1.0
 31
0.0
 73
     1
 44
1.0
1001
ACAD
1000
MTEXTBEGIN
1070
    73
1070
     1
1070
    44
1040
1.0
1070
    74
1070
     0
1000
MTEXTEND
  0
POINT
  5
6F2F
330
6E7B
100
AcDbEntity
  8
DEFPOINTS
 62
     0
100
AcDbPoint
 10
1008.710288124548
 20
185.7543758390301
 30
0.0
  0
POINT
  5
6F30
330
6E7B
100
AcDbEntity
  8
DEFPOINTS
 62
     0
100
AcDbPoint
 10
1008.710288124548
 20
176.7543758390301
 30
0.0
  0
POINT
  5
6F31
330
6E7B
100
AcDbEntity
  8
DEFPOINTS
 62
     0
100
AcDbPoint
 10
1006.682053868092
 20
176.7543758390301
 30
0.0
  0
ENDBLK
  5
6E7D
330
6E7B
100
AcDbEntity
  8
0
100
AcDbBlockEnd
  0
BLOCK
  5
6E8A
330
6E89
100
AcDbEntity
  8
0
100
AcDbBlockBegin
  2
*D15
 70
     1
 10
0.0
 20
0.0
 30
0.0
  3
*D15
  1

  0
LINE
  5
6F32
330
6E89
100
AcDbEntity
  8
标注
370
    -2
100
AcDbLine
 10
1009.964051694382
 20
176.4762545283475
 30
0.0
 11
1009.503870816428
 21
176.0171972774892
 31
0.0
  0
MTEXT
  5
6F33
330
6E89
100
AcDbEntity
  8
标注
100
AcDbMText
 10
1011.272397653072
 20
178.2512385999863
 30
0.0
 40
0.65
 41
0.0
 71
     5
 72
     1
  1
\A1;R3/8"
 11
0.7079705814675492
 21
0.7062419243973701
 31
0.0
 73
     1
 44
1.0
1001
ACAD
1000
MTEXTBEGIN
1070
    73
1070
     1
1070
    44
1040
1.0
1070
    74
1070
     0
1000
MTEXTEND
  0
LINE
  5
6F34
330
6E89
100
AcDbEntity
  8
标注
370
    -2
100
AcDbLine
 10
1010.702961147716
 20
177.2133597809361
 30
0.0
 11
1010.424232572336
 21
176.9353117792057
 31
0.0
  0
SOLID
  5
6F35
330
6E89
100
AcDbEntity
  8
标注
100
AcDbTrace
 10
1009.887542152572
 20
176.5529513413398
 30
0.0
 11
1010.040561236191
 21
176.3995577153552
 31
0.0
 12
1010.424232572336
 22
176.9353117792057
 32
0.0
 13
1010.424232572336
 23
176.9353117792057
 33
0.0
  0
POINT
  5
6F36
330
6E89
100
AcDbEntity
  8
DEFPOINTS
 62
     0
100
AcDbPoint
 10
1010.424232572336
 20
176.9353117792057
 30
0.0
  0
POINT
  5
6F37
330
6E89
100
AcDbEntity
  8
DEFPOINTS
 62
     0
100
AcDbPoint
 10
1010.702961147716
 20
177.2133597809361
 30
0.0
  0
ENDBLK
  5
6E8B
330
6E89
100
AcDbEntity
  8
0
100
AcDbBlockEnd
  0
BLOCK
  5
6E94
330
6E93
100
AcDbEntity
  8
0
100
AcDbBlockBegin
  2
*D16
 70
     1
 10
0.0
 20
0.0
 30
0.0
  3
*D16
  1

  0
LINE
  5
6F38
330
6E93
100
AcDbEntity
  8
标注
370
    -2
100
AcDbLine
 10
1024.947305626549
 20
177.4264608794609
 30
0.0
 11
1024.520300447961
 21
176.9363929479868
 31
0.0
  0
MTEXT
  5
6F39
330
6E93
100
AcDbEntity
  8
标注
100
AcDbMText
 10
1026.161982373129
 20
179.2928120157265
 30
0.0
 40
0.65
 41
0.0
 71
     5
 72
     1
  1
\A1;R3/8"
 11
0.6569310439812117
 21
0.7539506638061642
 31
0.0
 73
     1
 44
1.0
1001
ACAD
1000
MTEXTBEGIN
1070
    73
1070
     1
1070
    44
1040
1.0
1070
    74
1070
     0
1000
MTEXTEND
  0
LINE
  5
6F3A
330
6E93
100
AcDbEntity
  8
标注
370
    -2
100
AcDbLine
 10
1025.632945074419
 20
178.213359780936
 30
0.0
 11
1025.374310805136
 21
177.9165288109349
 31
0.0
  0
SOLID
  5
6F3B
330
6E93
100
AcDbEntity
  8
标注
100
AcDbTrace
 10
1024.86562763797
 20
177.4976284092256
 30
0.0
 11
1025.028983615128
 21
177.3552933496963
 31
0.0
 12
1025.374310805136
 22
177.9165288109349
 32
0.0
 13
1025.374310805136
 23
177.9165288109349
 33
0.0
  0
POINT
  5
6F3C
330
6E93
100
AcDbEntity
  8
DEFPOINTS
 62
     0
100
AcDbPoint
 10
1025.374310805136
 20
177.9165288109349
 30
0.0
  0
POINT
  5
6F3D
330
6E93
100
AcDbEntity
  8
DEFPOINTS
 62
     0
100
AcDbPoint
 10
1025.632945074419
 20
178.213359780936
 30
0.0
  0
ENDBLK
  5
6E95
330
6E93
100
AcDbEntity
  8
0
100
AcDbBlockEnd
  0
BLOCK
  5
70CB
330
70CA
100
AcDbEntity
  8
0
100
AcDbBlockBegin
  2
*D18
 70
     1
 10
0.0
 20
0.0
 30
0.0
  3
*D18
  1

  0
LINE
  5
7177
330
70CA
100
AcDbEntity
  8
标注
  6
Continuous
370
    -2
100
AcDbLine
 10
1031.750133577439
 20
108.459742309976
 30
0.0
 11
1031.750133577439
 21
106.2983693320087
 31
0.0
  0
LINE
  5
7178
330
70CA
100
AcDbEntity
  8
标注
  6
Continuous
370
    -2
100
AcDbLine
 10
1061.9020885017
 20
108.5313940630522
 30
0.0
 11
1061.9020885017
 21
106.2983693320087
 31
0.0
  0
LINE
  5
7179
330
70CA
100
AcDbEntity
  8
标注
  6
Continuous
370
    -2
100
AcDbLine
 10
1032.400133577439
 20
106.6183693320087
 30
0.0
 11
1045.142976660306
 21
106.6183693320087
 31
0.0
  0
LINE
  5
717A
330
70CA
100
AcDbEntity
  8
标注
  6
Continuous
370
    -2
100
AcDbLine
 10
1061.2520885017
 20
106.6183693320087
 30
0.0
 11
1048.509245418833
 21
106.6183693320087
 31
0.0
  0
SOLID
  5
717B
330
70CA
100
AcDbEntity
  8
标注
100
AcDbTrace
 10
1032.400133577439
 20
106.726702665342
 30
0.0
 11
1032.400133577439
 21
106.5100359986753
 31
0.0
 12
1031.750133577439
 22
106.6183693320087
 32
0.0
 13
1031.750133577439
 23
106.6183693320087
 33
0.0
  0
SOLID
  5
717C
330
70CA
100
AcDbEntity
  8
标注
100
AcDbTrace
 10
1061.2520885017
 20
106.726702665342
 30
0.0
 11
1061.2520885017
 21
106.5100359986753
 31
0.0
 12
1061.9020885017
 22
106.6183693320087
 32
0.0
 13
1061.9020885017
 23
106.6183693320087
 33
0.0
  0
MTEXT
  5
717D
330
70CA
100
AcDbEntity
  8
标注
100
AcDbMText
 10
1046.82611103957
 20
106.6183693320087
 30
0.0
 40
0.65
 41
0.0
 71
     5
 72
     1
  1
\A1;30 1/8"
 73
     1
 44
1.0
1001
ACAD
1000
MTEXTBEGIN
1070
    73
1070
     1
1070
    44
1040
1.0
1070
    74
1070
     0
1000
MTEXTEND
  0
POINT
  5
717E
330
70CA
100
AcDbEntity
  8
DEFPOINTS
 62
     0
100
AcDbPoint
 10
1031.750133577439
 20
109.339742309976
 30
0.0
  0
POINT
  5
717F
330
70CA
100
AcDbEntity
  8
DEFPOINTS
 62
     0
100
AcDbPoint
 10
1061.9020885017
 20
109.4113940630522
 30
0.0
  0
POINT
  5
7180
330
70CA
100
AcDbEntity
  8
DEFPOINTS
 62
     0
100
AcDbPoint
 10
1061.9020885017
 20
106.6183693320087
 30
0.0
  0
ENDBLK
  5
70CC
330
70CA
100
AcDbEntity
  8
0
100
AcDbBlockEnd
  0
BLOCK
  5
70D9
330
70D8
100
AcDbEntity
  8
0
100
AcDbBlockBegin
  2
*D19
 70
     1
 10
0.0
 20
0.0
 30
0.0
  3
*D19
  1

  0
LINE
  5
7181
330
70D8
100
AcDbEntity
  8
标注
  6
Continuous
370
    -2
100
AcDbLine
 10
1062.3096485017
 20
108.938954063069
 30
0.0
 11
1064.576224305511
 21
108.938954063069
 31
0.0
  0
LINE
  5
7182
330
70D8
100
AcDbEntity
  8
标注
  6
Continuous
370
    -2
100
AcDbLine
 10
1062.3096485017
 20
125.0964020630525
 30
0.0
 11
1064.576224305511
 21
125.0964020630525
 31
0.0
  0
LINE
  5
7183
330
70D8
100
AcDbEntity
  8
标注
  6
Continuous
370
    -2
100
AcDbLine
 10
1064.256224305511
 20
109.588954063069
 30
0.0
 11
1064.256224305511
 21
115.3649154436883
 31
0.0
  0
LINE
  5
7184
330
70D8
100
AcDbEntity
  8
标注
  6
Continuous
370
    -2
100
AcDbLine
 10
1064.256224305511
 20
124.4464020630525
 30
0.0
 11
1064.256224305511
 21
118.6704406824332
 31
0.0
  0
SOLID
  5
7185
330
70D8
100
AcDbEntity
  8
标注
100
AcDbTrace
 10
1064.147890972178
 20
109.588954063069
 30
0.0
 11
1064.364557638844
 21
109.588954063069
 31
0.0
 12
1064.256224305511
 22
108.938954063069
 32
0.0
 13
1064.256224305511
 23
108.938954063069
 33
0.0
  0
SOLID
  5
7186
330
70D8
100
AcDbEntity
  8
标注
100
AcDbTrace
 10
1064.147890972178
 20
124.4464020630525
 30
0.0
 11
1064.364557638844
 21
124.4464020630525
 31
0.0
 12
1064.256224305511
 22
125.0964020630525
 32
0.0
 13
1064.256224305511
 23
125.0964020630525
 33
0.0
  0
MTEXT
  5
7187
330
70D8
100
AcDbEntity
  8
标注
100
AcDbMText
 10
1064.256224305511
 20
117.0176780630609
 30
0.0
 40
0.65
 41
0.0
 71
     5
 72
     1
  1
\A1;16 1/8"
 11
0.0000000000000001
 21
1.0
 31
0.0
 73
     1
 44
1.0
1001
ACAD
1000
MTEXTBEGIN
1070
    73
1070
     1
1070
    44
1040
1.0
1070
    74
1070
     0
1000
MTEXTEND
  0
POINT
  5
7188
330
70D8
100
AcDbEntity
  8
DEFPOINTS
 62
     0
100
AcDbPoint
 10
1061.4296485017
 20
108.938954063069
 30
0.0
  0
POINT
  5
7189
330
70D8
100
AcDbEntity
  8
DEFPOINTS
 62
     0
100
AcDbPoint
 10
1061.4296485017
 20
125.0964020630525
 30
0.0
  0
POINT
  5
718A
330
70D8
100
AcDbEntity
  8
DEFPOINTS
 62
     0
100
AcDbPoint
 10
1064.256224305511
 20
125.0964020630525
 30
0.0
  0
ENDBLK
  5
70DA
330
70D8
100
AcDbEntity
  8
0
100
AcDbBlockEnd
  0
BLOCK
  5
70E7
330
70E6
100
AcDbEntity
  8
0
100
AcDbBlockBegin
  2
*D20
 70
     1
 10
0.0
 20
0.0
 30
0.0
  3
*D20
  1

  0
LINE
  5
718B
330
70E6
100
AcDbEntity
  8
标注
  6
Continuous
370
    -2
100
AcDbLine
 10
1031.329456651654
 20
108.7244109870424
 30
0.0
 11
1030.815421422578
 21
108.3265821503952
 31
0.0
  0
MTEXT
  5
718C
330
70E6
100
AcDbEntity
  8
标注
100
AcDbMText
 10
1032.752428175458
 20
110.2968467666346
 30
0.0
 40
0.65
 41
0.0
 71
     5
 72
     1
  1
\A1;4-R1/2"
 11
0.7908234293486518
 21
0.6120443640727672
 31
0.0
 73
     1
 44
1.0
1001
ACAD
1000
MTEXTBEGIN
1070
    73
1070
     1
1070
    44
1040
1.0
1070
    74
1070
     0
1000
MTEXTEND
  0
LINE
  5
718D
330
70E6
100
AcDbEntity
  8
标注
  6
Continuous
370
    -2
100
AcDbLine
 10
1032.217108501692
 20
109.4113940630522
 30
0.0
 11
1031.843491880731
 21
109.1222398236897
 31
0.0
  0
SOLID
  5
718E
330
70E6
100
AcDbEntity
  8
标注
100
AcDbTrace
 10
1031.263151845547
 20
108.8100835252219
 30
0.0
 11
1031.395761457763
 21
108.638738448863
 31
0.0
 12
1031.843491880731
 22
109.1222398236897
 32
0.0
 13
1031.843491880731
 23
109.1222398236897
 33
0.0
  0
POINT
  5
718F
330
70E6
100
AcDbEntity
  8
DEFPOINTS
 62
     0
100
AcDbPoint
 10
1031.843491880731
 20
109.1222398236897
 30
0.0
  0
POINT
  5
7190
330
70E6
100
AcDbEntity
  8
DEFPOINTS
 62
     0
100
AcDbPoint
 10
1032.217108501692
 20
109.4113940630522
 30
0.0
  0
ENDBLK
  5
70E8
330
70E6
100
AcDbEntity
  8
0
100
AcDbBlockEnd
  0
BLOCK
  5
7102
330
7101
100
AcDbEntity
  8
0
100
AcDbBlockBegin
  2
*D21
 70
     1
 10
0.0
 20
0.0
 30
0.0
  3
*D21
  1

  0
LINE
  5
7191
330
7101
100
AcDbEntity
  8
标注
  6
Continuous
370
    -2
100
AcDbLine
 10
1031.823408501721
 20
141.2969575858682
 30
0.0
 11
1031.823408501721
 21
138.708350569965
 31
0.0
  0
LINE
  5
7192
330
7101
100
AcDbEntity
  8
标注
  6
Continuous
370
    -2
100
AcDbLine
 10
1046.323379501719
 20
141.2969575858682
 30
0.0
 11
1046.323379501719
 21
138.708350569965
 31
0.0
  0
LINE
  5
7193
330
7101
100
AcDbEntity
  8
标注
  6
Continuous
370
    -2
100
AcDbLine
 10
1032.473408501721
 20
139.028350569965
 30
0.0
 11
1037.420631382348
 21
139.028350569965
 31
0.0
  0
LINE
  5
7194
330
7101
100
AcDbEntity
  8
标注
  6
Continuous
370
    -2
100
AcDbLine
 10
1045.673379501719
 20
139.028350569965
 30
0.0
 11
1040.726156621093
 21
139.028350569965
 31
0.0
  0
SOLID
  5
7195
330
7101
100
AcDbEntity
  8
标注
100
AcDbTrace
 10
1032.473408501721
 20
139.1366839032983
 30
0.0
 11
1032.473408501721
 21
138.9200172366317
 31
0.0
 12
1031.823408501721
 22
139.028350569965
 32
0.0
 13
1031.823408501721
 23
139.028350569965
 33
0.0
  0
SOLID
  5
7196
330
7101
100
AcDbEntity
  8
标注
100
AcDbTrace
 10
1045.673379501719
 20
139.1366839032983
 30
0.0
 11
1045.673379501719
 21
138.9200172366317
 31
0.0
 12
1046.323379501719
 22
139.028350569965
 32
0.0
 13
1046.323379501719
 23
139.028350569965
 33
0.0
  0
MTEXT
  5
7197
330
7101
100
AcDbEntity
  8
标注
100
AcDbMText
 10
1039.07339400172
 20
139.028350569965
 30
0.0
 40
0.65
 41
0.0
 71
     5
 72
     1
  1
\A1;14 1/2"
 73
     1
 44
1.0
1001
ACAD
1000
MTEXTBEGIN
1070
    73
1070
     1
1070
    44
1040
1.0
1070
    74
1070
     0
1000
MTEXTEND
  0
POINT
  5
7198
330
7101
100
AcDbEntity
  8
DEFPOINTS
 62
     0
100
AcDbPoint
 10
1031.823408501721
 20
142.1769575858682
 30
0.0
  0
POINT
  5
7199
330
7101
100
AcDbEntity
  8
DEFPOINTS
 62
     0
100
AcDbPoint
 10
1046.323379501719
 20
142.1769575858682
 30
0.0
  0
POINT
  5
719A
330
7101
100
AcDbEntity
  8
DEFPOINTS
 62
     0
100
AcDbPoint
 10
1046.323379501719
 20
139.028350569965
 30
0.0
  0
ENDBLK
  5
7103
330
7101
100
AcDbEntity
  8
0
100
AcDbBlockEnd
  0
BLOCK
  5
7110
330
710F
100
AcDbEntity
  8
0
100
AcDbBlockBegin
  2
*D22
 70
     1
 10
0.0
 20
0.0
 30
0.0
  3
*D22
  1

  0
LINE
  5
719B
330
710F
100
AcDbEntity
  8
标注
  6
Continuous
370
    -2
100
AcDbLine
 10
1047.323377501718
 20
141.2969575858682
 30
0.0
 11
1047.323377501718
 21
138.708350569965
 31
0.0
  0
LINE
  5
719C
330
710F
100
AcDbEntity
  8
标注
  6
Continuous
370
    -2
100
AcDbLine
 10
1061.823348501715
 20
141.2969575858682
 30
0.0
 11
1061.823348501715
 21
138.708350569965
 31
0.0
  0
LINE
  5
719D
330
710F
100
AcDbEntity
  8
标注
  6
Continuous
370
    -2
100
AcDbLine
 10
1047.973377501718
 20
139.028350569965
 30
0.0
 11
1052.920600382344
 21
139.028350569965
 31
0.0
  0
LINE
  5
719E
330
710F
100
AcDbEntity
  8
标注
  6
Continuous
370
    -2
100
AcDbLine
 10
1061.173348501715
 20
139.028350569965
 30
0.0
 11
1056.226125621089
 21
139.028350569965
 31
0.0
  0
SOLID
  5
719F
330
710F
100
AcDbEntity
  8
标注
100
AcDbTrace
 10
1047.973377501718
 20
139.1366839032983
 30
0.0
 11
1047.973377501718
 21
138.9200172366317
 31
0.0
 12
1047.323377501718
 22
139.028350569965
 32
0.0
 13
1047.323377501718
 23
139.028350569965
 33
0.0
  0
SOLID
  5
71A0
330
710F
100
AcDbEntity
  8
标注
100
AcDbTrace
 10
1061.173348501715
 20
139.1366839032983
 30
0.0
 11
1061.173348501715
 21
138.9200172366317
 31
0.0
 12
1061.823348501715
 22
139.028350569965
 32
0.0
 13
1061.823348501715
 23
139.028350569965
 33
0.0
  0
MTEXT
  5
71A1
330
710F
100
AcDbEntity
  8
标注
100
AcDbMText
 10
1054.573363001717
 20
139.028350569965
 30
0.0
 40
0.65
 41
0.0
 71
     5
 72
     1
  1
\A1;14 1/2"
 73
     1
 44
1.0
1001
ACAD
1000
MTEXTBEGIN
1070
    73
1070
     1
1070
    44
1040
1.0
1070
    74
1070
     0
1000
MTEXTEND
  0
POINT
  5
71A2
330
710F
100
AcDbEntity
  8
DEFPOINTS
 62
     0
100
AcDbPoint
 10
1047.323377501718
 20
142.1769575858682
 30
0.0
  0
POINT
  5
71A3
330
710F
100
AcDbEntity
  8
DEFPOINTS
 62
     0
100
AcDbPoint
 10
1061.823348501715
 20
142.1769575858682
 30
0.0
  0
POINT
  5
71A4
330
710F
100
AcDbEntity
  8
DEFPOINTS
 62
     0
100
AcDbPoint
 10
1061.823348501715
 20
139.028350569965
 30
0.0
  0
ENDBLK
  5
7111
330
710F
100
AcDbEntity
  8
0
100
AcDbBlockEnd
  0
BLOCK
  5
711E
330
711D
100
AcDbEntity
  8
0
100
AcDbBlockBegin
  2
*D23
 70
     1
 10
0.0
 20
0.0
 30
0.0
  3
*D23
  1

  0
LINE
  5
71A5
330
711D
100
AcDbEntity
  8
标注
  6
Continuous
370
    -2
100
AcDbLine
 10
1030.823410501722
 20
140.7508337617568
 30
0.0
 11
1030.823410501722
 21
136.4994846840956
 31
0.0
  0
LINE
  5
71A6
330
711D
100
AcDbEntity
  8
标注
  6
Continuous
370
    -2
100
AcDbLine
 10
1062.823346501703
 20
140.7508337617568
 30
0.0
 11
1062.823346501703
 21
136.4994846840956
 31
0.0
  0
LINE
  5
71A7
330
711D
100
AcDbEntity
  8
标注
  6
Continuous
370
    -2
100
AcDbLine
 10
1031.473410501722
 20
136.8194846840956
 30
0.0
 11
1045.897542894618
 21
136.8194846840956
 31
0.0
  0
LINE
  5
71A8
330
711D
100
AcDbEntity
  8
标注
  6
Continuous
370
    -2
100
AcDbLine
 10
1062.173346501703
 20
136.8194846840956
 30
0.0
 11
1047.749214108806
 21
136.8194846840956
 31
0.0
  0
SOLID
  5
71A9
330
711D
100
AcDbEntity
  8
标注
100
AcDbTrace
 10
1031.473410501722
 20
136.9278180174289
 30
0.0
 11
1031.473410501722
 21
136.7111513507623
 31
0.0
 12
1030.823410501722
 22
136.8194846840956
 32
0.0
 13
1030.823410501722
 23
136.8194846840956
 33
0.0
  0
SOLID
  5
71AA
330
711D
100
AcDbEntity
  8
标注
100
AcDbTrace
 10
1062.173346501703
 20
136.9278180174289
 30
0.0
 11
1062.173346501703
 21
136.7111513507623
 31
0.0
 12
1062.823346501703
 22
136.8194846840956
 32
0.0
 13
1062.823346501703
 23
136.8194846840956
 33
0.0
  0
MTEXT
  5
71AB
330
711D
100
AcDbEntity
  8
标注
100
AcDbMText
 10
1046.823378501712
 20
136.8194846840956
 30
0.0
 40
0.65
 41
0.0
 71
     5
 72
     1
  1
\A1;32"
 73
     1
 44
1.0
1001
ACAD
1000
MTEXTBEGIN
1070
    73
1070
     1
1070
    44
1040
1.0
1070
    74
1070
     0
1000
MTEXTEND
  0
POINT
  5
71AC
330
711D
100
AcDbEntity
  8
DEFPOINTS
 62
     0
100
AcDbPoint
 10
1030.823410501722
 20
141.6308337617568
 30
0.0
  0
POINT
  5
71AD
330
711D
100
AcDbEntity
  8
DEFPOINTS
 62
     0
100
AcDbPoint
 10
1062.823346501703
 20
141.6308337617568
 30
0.0
  0
POINT
  5
71AE
330
711D
100
AcDbEntity
  8
DEFPOINTS
 62
     0
100
AcDbPoint
 10
1062.823346501703
 20
136.8194846840956
 30
0.0
  0
ENDBLK
  5
711F
330
711D
100
AcDbEntity
  8
0
100
AcDbBlockEnd
  0
BLOCK
  5
712C
330
712B
100
AcDbEntity
  8
0
100
AcDbBlockBegin
  2
*D24
 70
     1
 10
0.0
 20
0.0
 30
0.0
  3
*D24
  1

  0
LINE
  5
71AF
330
712B
100
AcDbEntity
  8
标注
  6
Continuous
370
    -2
100
AcDbLine
 10
1062.066157021823
 20
141.7832575858531
 30
0.0
 11
1064.904507584792
 21
141.7832575858531
 31
0.0
  0
LINE
  5
71B0
330
712B
100
AcDbEntity
  8
标注
  6
Continuous
370
    -2
100
AcDbLine
 10
1062.066157021823
 20
157.7832255858714
 30
0.0
 11
1064.904507584792
 21
157.7832255858714
 31
0.0
  0
LINE
  5
71B1
330
712B
100
AcDbEntity
  8
标注
  6
Continuous
370
    -2
100
AcDbLine
 10
1064.584507584792
 20
142.4332575858531
 30
0.0
 11
1064.584507584792
 21
148.887777738659
 31
0.0
  0
LINE
  5
71B2
330
712B
100
AcDbEntity
  8
标注
  6
Continuous
370
    -2
100
AcDbLine
 10
1064.584507584792
 20
157.1332255858713
 30
0.0
 11
1064.584507584792
 21
150.6787054330655
 31
0.0
  0
SOLID
  5
71B3
330
712B
100
AcDbEntity
  8
标注
100
AcDbTrace
 10
1064.476174251459
 20
142.4332575858531
 30
0.0
 11
1064.692840918125
 21
142.4332575858531
 31
0.0
 12
1064.584507584792
 22
141.7832575858531
 32
0.0
 13
1064.584507584792
 23
141.7832575858531
 33
0.0
  0
SOLID
  5
71B4
330
712B
100
AcDbEntity
  8
标注
100
AcDbTrace
 10
1064.476174251459
 20
157.1332255858713
 30
0.0
 11
1064.692840918125
 21
157.1332255858713
 31
0.0
 12
1064.584507584792
 22
157.7832255858714
 32
0.0
 13
1064.584507584792
 23
157.7832255858714
 33
0.0
  0
MTEXT
  5
71B5
330
712B
100
AcDbEntity
  8
标注
100
AcDbMText
 10
1064.584507584792
 20
149.7832415858624
 30
0.0
 40
0.65
 41
0.0
 71
     5
 72
     1
  1
\A1;16"
 11
0.0000000000000001
 21
1.0
 31
0.0
 73
     1
 44
1.0
1001
ACAD
1000
MTEXTBEGIN
1070
    73
1070
     1
1070
    44
1040
1.0
1070
    74
1070
     0
1000
MTEXTEND
  0
POINT
  5
71B6
330
712B
100
AcDbEntity
  8
DEFPOINTS
 62
     0
100
AcDbPoint
 10
1061.186157021823
 20
141.7832575858531
 30
0.0
  0
POINT
  5
71B7
330
712B
100
AcDbEntity
  8
DEFPOINTS
 62
     0
100
AcDbPoint
 10
1061.186157021823
 20
157.7832255858714
 30
0.0
  0
POINT
  5
71B8
330
712B
100
AcDbEntity
  8
DEFPOINTS
 62
     0
100
AcDbPoint
 10
1064.584507584792
 20
157.7832255858714
 30
0.0
  0
ENDBLK
  5
712D
330
712B
100
AcDbEntity
  8
0
100
AcDbBlockEnd
  0
BLOCK
  5
713A
330
7139
100
AcDbEntity
  8
0
100
AcDbBlockBegin
  2
*D25
 70
     1
 10
0.0
 20
0.0
 30
0.0
  3
*D25
  1

  0
LINE
  5
71B9
330
7139
100
AcDbEntity
  8
标注
  6
Continuous
370
    -2
100
AcDbLine
 10
1062.703348501715
 20
140.7832595858683
 30
0.0
 11
1066.67110858557
 21
140.7832595858683
 31
0.0
  0
LINE
  5
71BA
330
7139
100
AcDbEntity
  8
标注
  6
Continuous
370
    -2
100
AcDbLine
 10
1062.703348501715
 20
158.7832235858561
 30
0.0
 11
1066.67110858557
 21
158.7832235858561
 31
0.0
  0
LINE
  5
71BB
330
7139
100
AcDbEntity
  8
标注
  6
Continuous
370
    -2
100
AcDbLine
 10
1066.35110858557
 20
141.4332595858683
 30
0.0
 11
1066.35110858557
 21
148.887777738659
 31
0.0
  0
LINE
  5
71BC
330
7139
100
AcDbEntity
  8
标注
  6
Continuous
370
    -2
100
AcDbLine
 10
1066.35110858557
 20
158.1332235858561
 30
0.0
 11
1066.35110858557
 21
150.6787054330655
 31
0.0
  0
SOLID
  5
71BD
330
7139
100
AcDbEntity
  8
标注
100
AcDbTrace
 10
1066.242775252236
 20
141.4332595858683
 30
0.0
 11
1066.459441918903
 21
141.4332595858683
 31
0.0
 12
1066.35110858557
 22
140.7832595858683
 32
0.0
 13
1066.35110858557
 23
140.7832595858683
 33
0.0
  0
SOLID
  5
71BE
330
7139
100
AcDbEntity
  8
标注
100
AcDbTrace
 10
1066.242775252236
 20
158.1332235858561
 30
0.0
 11
1066.459441918903
 21
158.1332235858561
 31
0.0
 12
1066.35110858557
 22
158.7832235858561
 32
0.0
 13
1066.35110858557
 23
158.7832235858561
 33
0.0
  0
MTEXT
  5
71BF
330
7139
100
AcDbEntity
  8
标注
100
AcDbMText
 10
1066.35110858557
 20
149.7832415858624
 30
0.0
 40
0.65
 41
0.0
 71
     5
 72
     1
  1
\A1;18"
 11
0.0000000000000001
 21
1.0
 31
0.0
 73
     1
 44
1.0
1001
ACAD
1000
MTEXTBEGIN
1070
    73
1070
     1
1070
    44
1040
1.0
1070
    74
1070
     0
1000
MTEXTEND
  0
POINT
  5
71C0
330
7139
100
AcDbEntity
  8
DEFPOINTS
 62
     0
100
AcDbPoint
 10
1061.823348501715
 20
140.7832595858683
 30
0.0
  0
POINT
  5
71C1
330
7139
100
AcDbEntity
  8
DEFPOINTS
 62
     0
100
AcDbPoint
 10
1061.823348501715
 20
158.7832235858561
 30
0.0
  0
POINT
  5
71C2
330
7139
100
AcDbEntity
  8
DEFPOINTS
 62
     0
100
AcDbPoint
 10
1066.35110858557
 20
158.7832235858561
 30
0.0
  0
ENDBLK
  5
713B
330
7139
100
AcDbEntity
  8
0
100
AcDbBlockEnd
  0
BLOCK
  5
7148
330
7147
100
AcDbEntity
  8
0
100
AcDbBlockBegin
  2
*D26
 70
     1
 10
0.0
 20
0.0
 30
0.0
  3
*D26
  1

  0
LINE
  5
71C3
330
7147
100
AcDbEntity
  8
标注
  6
Continuous
370
    -2
100
AcDbLine
 10
1063.7033465017
 20
184.6603955159369
 30
0.0
 11
1065.526175000432
 21
184.6603955159369
 31
0.0
  0
LINE
  5
71C4
330
7147
100
AcDbEntity
  8
标注
  6
Continuous
370
    -2
100
AcDbLine
 10
1063.7033465017
 20
174.6603955159369
 30
0.0
 11
1065.526175000432
 21
174.6603955159369
 31
0.0
  0
LINE
  5
71C5
330
7147
100
AcDbEntity
  8
标注
  6
Continuous
370
    -2
100
AcDbLine
 10
1065.206175000432
 20
184.0103955159369
 30
0.0
 11
1065.206175000432
 21
180.5558593631402
 31
0.0
  0
LINE
  5
71C6
330
7147
100
AcDbEntity
  8
标注
  6
Continuous
370
    -2
100
AcDbLine
 10
1065.206175000432
 20
175.3103955159369
 30
0.0
 11
1065.206175000432
 21
178.7649316687336
 31
0.0
  0
SOLID
  5
71C7
330
7147
100
AcDbEntity
  8
标注
100
AcDbTrace
 10
1065.097841667098
 20
184.0103955159369
 30
0.0
 11
1065.314508333765
 21
184.0103955159369
 31
0.0
 12
1065.206175000432
 22
184.6603955159369
 32
0.0
 13
1065.206175000432
 23
184.6603955159369
 33
0.0
  0
SOLID
  5
71C8
330
7147
100
AcDbEntity
  8
标注
100
AcDbTrace
 10
1065.097841667098
 20
175.3103955159369
 30
0.0
 11
1065.314508333765
 21
175.3103955159369
 31
0.0
 12
1065.206175000432
 22
174.6603955159369
 32
0.0
 13
1065.206175000432
 23
174.6603955159369
 33
0.0
  0
MTEXT
  5
71C9
330
7147
100
AcDbEntity
  8
标注
100
AcDbMText
 10
1065.206175000432
 20
179.660395515937
 30
0.0
 40
0.65
 41
0.0
 71
     5
 72
     1
  1
\A1;10"
 11
0.0000000000000001
 21
1.0
 31
0.0
 73
     1
 44
1.0
1001
ACAD
1000
MTEXTBEGIN
1070
    73
1070
     1
1070
    44
1040
1.0
1070
    74
1070
     0
1000
MTEXTEND
  0
POINT
  5
71CA
330
7147
100
AcDbEntity
  8
DEFPOINTS
 62
     0
100
AcDbPoint
 10
1062.8233465017
 20
184.6603955159369
 30
0.0
  0
POINT
  5
71CB
330
7147
100
AcDbEntity
  8
DEFPOINTS
 62
     0
100
AcDbPoint
 10
1062.8233465017
 20
174.6603955159369
 30
0.0
  0
POINT
  5
71CC
330
7147
100
AcDbEntity
  8
DEFPOINTS
 62
     0
100
AcDbPoint
 10
1065.206175000432
 20
174.6603955159369
 30
0.0
  0
ENDBLK
  5
7149
330
7147
100
AcDbEntity
  8
0
100
AcDbBlockEnd
  0
BLOCK
  5
7156
330
7155
100
AcDbEntity
  8
0
100
AcDbBlockBegin
  2
*D27
 70
     1
 10
0.0
 20
0.0
 30
0.0
  3
*D27
  1

  0
LINE
  5
71CD
330
7155
100
AcDbEntity
  8
标注
  6
Continuous
370
    -2
100
AcDbLine
 10
1029.943410501722
 20
184.6603955159369
 30
0.0
 11
1028.191210657702
 21
184.6603955159369
 31
0.0
  0
LINE
  5
71CE
330
7155
100
AcDbEntity
  8
标注
  6
Continuous
370
    -2
100
AcDbLine
 10
1029.943410501722
 20
174.6603955159369
 30
0.0
 11
1028.191210657702
 21
174.6603955159369
 31
0.0
  0
LINE
  5
71CF
330
7155
100
AcDbEntity
  8
标注
  6
Continuous
370
    -2
100
AcDbLine
 10
1028.511210657702
 20
184.0103955159369
 30
0.0
 11
1028.511210657702
 21
180.5558593631402
 31
0.0
  0
LINE
  5
71D0
330
7155
100
AcDbEntity
  8
标注
  6
Continuous
370
    -2
100
AcDbLine
 10
1028.511210657702
 20
175.3103955159369
 30
0.0
 11
1028.511210657702
 21
178.7649316687336
 31
0.0
  0
SOLID
  5
71D1
330
7155
100
AcDbEntity
  8
标注
100
AcDbTrace
 10
1028.402877324369
 20
184.0103955159369
 30
0.0
 11
1028.619543991035
 21
184.0103955159369
 31
0.0
 12
1028.511210657702
 22
184.6603955159369
 32
0.0
 13
1028.511210657702
 23
184.6603955159369
 33
0.0
  0
SOLID
  5
71D2
330
7155
100
AcDbEntity
  8
标注
100
AcDbTrace
 10
1028.402877324369
 20
175.3103955159369
 30
0.0
 11
1028.619543991035
 21
175.3103955159369
 31
0.0
 12
1028.511210657702
 22
174.6603955159369
 32
0.0
 13
1028.511210657702
 23
174.6603955159369
 33
0.0
  0
MTEXT
  5
71D3
330
7155
100
AcDbEntity
  8
标注
100
AcDbMText
 10
1028.511210657702
 20
179.660395515937
 30
0.0
 40
0.65
 41
0.0
 71
     5
 72
     1
  1
\A1;10"
 11
0.0000000000000001
 21
1.0
 31
0.0
 73
     1
 44
1.0
1001
ACAD
1000
MTEXTBEGIN
1070
    73
1070
     1
1070
    44
1040
1.0
1070
    74
1070
     0
1000
MTEXTEND
  0
POINT
  5
71D4
330
7155
100
AcDbEntity
  8
DEFPOINTS
 62
     0
100
AcDbPoint
 10
1030.823410501722
 20
184.6603955159369
 30
0.0
  0
POINT
  5
71D5
330
7155
100
AcDbEntity
  8
DEFPOINTS
 62
     0
100
AcDbPoint
 10
1030.823410501722
 20
174.6603955159369
 30
0.0
  0
POINT
  5
71D6
330
7155
100
AcDbEntity
  8
DEFPOINTS
 62
     0
100
AcDbPoint
 10
1028.511210657702
 20
174.6603955159369
 30
0.0
  0
ENDBLK
  5
7157
330
7155
100
AcDbEntity
  8
0
100
AcDbBlockEnd
  0
BLOCK
  5
7164
330
7163
100
AcDbEntity
  8
0
100
AcDbBlockBegin
  2
*D28
 70
     1
 10
0.0
 20
0.0
 30
0.0
  3
*D28
  1

  0
LINE
  5
71D7
330
7163
100
AcDbEntity
  8
标注
  6
Continuous
370
    -2
100
AcDbLine
 10
1031.352900161762
 20
174.4776646317604
 30
0.0
 11
1030.814684754121
 21
174.1132141207468
 31
0.0
  0
MTEXT
  5
71D8
330
7163
100
AcDbEntity
  8
标注
100
AcDbMText
 10
1032.909697407531
 20
176.0117271702921
 30
0.0
 40
0.65
 41
0.0
 71
     5
 72
     1
  1
\A1;R3/8"
 11
0.8280237040626415
 21
0.5606930938672092
 31
0.0
 73
     1
 44
1.0
1001
ACAD
1000
MTEXTBEGIN
1070
    73
1070
     1
1070
    44
1040
1.0
1070
    74
1070
     0
1000
MTEXTEND
  0
LINE
  5
71D9
330
7163
100
AcDbEntity
  8
标注
  6
Continuous
370
    -2
100
AcDbLine
 10
1032.217108501692
 20
175.0628600138295
 30
0.0
 11
1031.891115569403
 21
174.8421151427741
 31
0.0
  0
SOLID
  5
71DA
330
7163
100
AcDbEntity
  8
标注
100
AcDbTrace
 10
1031.292158409927
 20
174.5673671997006
 30
0.0
 11
1031.413641913598
 21
174.3879620638202
 31
0.0
 12
1031.891115569403
 22
174.8421151427741
 32
0.0
 13
1031.891115569403
 23
174.8421151427741
 33
0.0
  0
POINT
  5
71DB
330
7163
100
AcDbEntity
  8
DEFPOINTS
 62
     0
100
AcDbPoint
 10
1031.891115569403
 20
174.8421151427741
 30
0.0
  0
POINT
  5
71DC
330
7163
100
AcDbEntity
  8
DEFPOINTS
 62
     0
100
AcDbPoint
 10
1032.217108501692
 20
175.0628600138295
 30
0.0
  0
ENDBLK
  5
7165
330
7163
100
AcDbEntity
  8
0
100
AcDbBlockEnd
  0
BLOCK
  5
731F
330
731E
100
AcDbEntity
  8
0
100
AcDbBlockBegin
  2
*D30
 70
     1
 10
0.0
 20
0.0
 30
0.0
  3
*D30
  1

  0
LINE
  5
7321
330
731E
100
AcDbEntity
  8
标注
  6
Continuous
370
    -2
100
AcDbLine
 10
1089.056921980526
 20
104.6856341446124
 30
0.0
 11
1089.056921980526
 21
102.3917688782459
 31
0.0
  0
LINE
  5
7322
330
731E
100
AcDbEntity
  8
标注
  6
Continuous
370
    -2
100
AcDbLine
 10
1117.714344980523
 20
104.6856341446124
 30
0.0
 11
1117.714344980523
 21
102.3917688782459
 31
0.0
  0
LINE
  5
7323
330
731E
100
AcDbEntity
  8
标注
  6
Continuous
370
    -2
100
AcDbLine
 10
1089.706921980526
 20
102.7117688782459
 30
0.0
 11
1101.696735117632
 21
102.7117688782459
 31
0.0
  0
LINE
  5
7324
330
731E
100
AcDbEntity
  8
标注
  6
Continuous
370
    -2
100
AcDbLine
 10
1117.064344980523
 20
102.7117688782459
 30
0.0
 11
1105.074531843416
 21
102.7117688782459
 31
0.0
  0
SOLID
  5
7325
330
731E
100
AcDbEntity
  8
标注
100
AcDbTrace
 10
1089.706921980526
 20
102.8201022115793
 30
0.0
 11
1089.706921980526
 21
102.6034355449126
 31
0.0
 12
1089.056921980526
 22
102.7117688782459
 32
0.0
 13
1089.056921980526
 23
102.7117688782459
 33
0.0
  0
SOLID
  5
7326
330
731E
100
AcDbEntity
  8
标注
100
AcDbTrace
 10
1117.064344980523
 20
102.8201022115793
 30
0.0
 11
1117.064344980523
 21
102.6034355449126
 31
0.0
 12
1117.714344980523
 22
102.7117688782459
 32
0.0
 13
1117.714344980523
 23
102.7117688782459
 33
0.0
  0
MTEXT
  5
7327
330
731E
100
AcDbEntity
  8
标注
100
AcDbMText
 10
1103.385633480524
 20
102.7117688782459
 30
0.0
 40
0.65
 41
0.0
 71
     5
 72
     1
  1
\A1;28 5/8"
 73
     1
 44
1.0
1001
ACAD
1000
MTEXTBEGIN
1070
    73
1070
     1
1070
    44
1040
1.0
1070
    74
1070
     0
1000
MTEXTEND
  0
POINT
  5
7328
330
731E
100
AcDbEntity
  8
DEFPOINTS
 62
     0
100
AcDbPoint
 10
1089.056921980526
 20
105.5656341446124
 30
0.0
  0
POINT
  5
7329
330
731E
100
AcDbEntity
  8
DEFPOINTS
 62
     0
100
AcDbPoint
 10
1117.714344980523
 20
105.5656341446124
 30
0.0
  0
POINT
  5
732A
330
731E
100
AcDbEntity
  8
DEFPOINTS
 62
     0
100
AcDbPoint
 10
1117.714344980523
 20
102.7117688782459
 30
0.0
  0
ENDBLK
  5
7320
330
731E
100
AcDbEntity
  8
0
100
AcDbBlockEnd
  0
BLOCK
  5
732D
330
732C
100
AcDbEntity
  8
0
100
AcDbBlockBegin
  2
*D31
 70
     1
 10
0.0
 20
0.0
 30
0.0
  3
*D31
  1

  0
LINE
  5
732F
330
732C
100
AcDbEntity
  8
标注
  6
Continuous
370
    -2
100
AcDbLine
 10
1118.12190498054
 20
105.0931941446001
 30
0.0
 11
1120.138259186144
 21
105.0931941446001
 31
0.0
  0
LINE
  5
7330
330
732C
100
AcDbEntity
  8
标注
  6
Continuous
370
    -2
100
AcDbLine
 10
1118.121904980525
 20
121.2506421446128
 30
0.0
 11
1120.138259186144
 21
121.2506421446128
 31
0.0
  0
LINE
  5
7331
330
732C
100
AcDbEntity
  8
标注
  6
Continuous
370
    -2
100
AcDbLine
 10
1119.818259186144
 20
105.7431941446001
 30
0.0
 11
1119.818259186144
 21
111.519155525234
 31
0.0
  0
LINE
  5
7332
330
732C
100
AcDbEntity
  8
标注
  6
Continuous
370
    -2
100
AcDbLine
 10
1119.818259186144
 20
120.6006421446128
 30
0.0
 11
1119.818259186144
 21
114.8246807639789
 31
0.0
  0
SOLID
  5
7333
330
732C
100
AcDbEntity
  8
标注
100
AcDbTrace
 10
1119.709925852811
 20
105.7431941446001
 30
0.0
 11
1119.926592519478
 21
105.7431941446001
 31
0.0
 12
1119.818259186144
 22
105.0931941446001
 32
0.0
 13
1119.818259186144
 23
105.0931941446001
 33
0.0
  0
SOLID
  5
7334
330
732C
100
AcDbEntity
  8
标注
100
AcDbTrace
 10
1119.709925852811
 20
120.6006421446128
 30
0.0
 11
1119.926592519478
 21
120.6006421446128
 31
0.0
 12
1119.818259186144
 22
121.2506421446128
 32
0.0
 13
1119.818259186144
 23
121.2506421446128
 33
0.0
  0
MTEXT
  5
7335
330
732C
100
AcDbEntity
  8
标注
100
AcDbMText
 10
1119.818259186144
 20
113.1719181446066
 30
0.0
 40
0.65
 41
0.0
 71
     5
 72
     1
  1
\A1;16 1/8"
 11
0.0000000000000001
 21
1.0
 31
0.0
 73
     1
 44
1.0
1001
ACAD
1000
MTEXTBEGIN
1070
    73
1070
     1
1070
    44
1040
1.0
1070
    74
1070
     0
1000
MTEXTEND
  0
POINT
  5
7336
330
732C
100
AcDbEntity
  8
DEFPOINTS
 62
     0
100
AcDbPoint
 10
1117.24190498054
 20
105.0931941446001
 30
0.0
  0
POINT
  5
7337
330
732C
100
AcDbEntity
  8
DEFPOINTS
 62
     0
100
AcDbPoint
 10
1117.241904980525
 20
121.2506421446128
 30
0.0
  0
POINT
  5
7338
330
732C
100
AcDbEntity
  8
DEFPOINTS
 62
     0
100
AcDbPoint
 10
1119.818259186144
 20
121.2506421446128
 30
0.0
  0
ENDBLK
  5
732E
330
732C
100
AcDbEntity
  8
0
100
AcDbBlockEnd
  0
BLOCK
  5
733B
330
733A
100
AcDbEntity
  8
0
100
AcDbBlockBegin
  2
*D32
 70
     1
 10
0.0
 20
0.0
 30
0.0
  3
*D32
  1

  0
LINE
  5
733D
330
733A
100
AcDbEntity
  8
标注
  6
Continuous
370
    -2
100
AcDbLine
 10
1088.649361980538
 20
105.0931941446001
 30
0.0
 11
1085.890576979412
 21
105.0931941446001
 31
0.0
  0
LINE
  5
733E
330
733A
100
AcDbEntity
  8
标注
  6
Continuous
370
    -2
100
AcDbLine
 10
1088.649361980538
 20
123.2506381446114
 30
0.0
 11
1085.890576979412
 21
123.2506381446114
 31
0.0
  0
LINE
  5
733F
330
733A
100
AcDbEntity
  8
标注
  6
Continuous
370
    -2
100
AcDbLine
 10
1086.210576979412
 20
105.7431941446001
 30
0.0
 11
1086.210576979412
 21
112.5191535252333
 31
0.0
  0
LINE
  5
7340
330
733A
100
AcDbEntity
  8
标注
  6
Continuous
370
    -2
100
AcDbLine
 10
1086.210576979412
 20
122.6006381446114
 30
0.0
 11
1086.210576979412
 21
115.8246787639782
 31
0.0
  0
SOLID
  5
7341
330
733A
100
AcDbEntity
  8
标注
100
AcDbTrace
 10
1086.102243646079
 20
105.7431941446001
 30
0.0
 11
1086.318910312746
 21
105.7431941446001
 31
0.0
 12
1086.210576979412
 22
105.0931941446001
 32
0.0
 13
1086.210576979412
 23
105.0931941446001
 33
0.0
  0
SOLID
  5
7342
330
733A
100
AcDbEntity
  8
标注
100
AcDbTrace
 10
1086.102243646079
 20
122.6006381446114
 30
0.0
 11
1086.318910312746
 21
122.6006381446114
 31
0.0
 12
1086.210576979412
 22
123.2506381446114
 32
0.0
 13
1086.210576979412
 23
123.2506381446114
 33
0.0
  0
MTEXT
  5
7343
330
733A
100
AcDbEntity
  8
标注
100
AcDbMText
 10
1086.210576979412
 20
114.171916144606
 30
0.0
 40
0.65
 41
0.0
 71
     5
 72
     1
  1
\A1;18 1/8"
 11
0.0000000000000001
 21
1.0
 31
0.0
 73
     1
 44
1.0
1001
ACAD
1000
MTEXTBEGIN
1070
    73
1070
     1
1070
    44
1040
1.0
1070
    74
1070
     0
1000
MTEXTEND
  0
POINT
  5
7344
330
733A
100
AcDbEntity
  8
DEFPOINTS
 62
     0
100
AcDbPoint
 10
1089.529361980538
 20
105.0931941446001
 30
0.0
  0
POINT
  5
7345
330
733A
100
AcDbEntity
  8
DEFPOINTS
 62
     0
100
AcDbPoint
 10
1089.529361980538
 20
123.2506381446114
 30
0.0
  0
POINT
  5
7346
330
733A
100
AcDbEntity
  8
DEFPOINTS
 62
     0
100
AcDbPoint
 10
1086.210576979412
 20
123.2506381446114
 30
0.0
  0
ENDBLK
  5
733C
330
733A
100
AcDbEntity
  8
0
100
AcDbBlockEnd
  0
BLOCK
  5
7349
330
7348
100
AcDbEntity
  8
0
100
AcDbBlockBegin
  2
*D33
 70
     1
 10
0.0
 20
0.0
 30
0.0
  3
*D33
  1

  0
LINE
  5
7355
330
7348
100
AcDbEntity
  8
标注
  6
Continuous
370
    -2
100
AcDbLine
 10
1089.056921980526
 20
123.6581981445991
 30
0.0
 11
1089.056921980526
 21
125.6263981111345
 31
0.0
  0
LINE
  5
7356
330
7348
100
AcDbEntity
  8
标注
  6
Continuous
370
    -2
100
AcDbLine
 10
1103.21437398054
 20
123.6581981445991
 30
0.0
 11
1103.21437398054
 21
125.6263981111345
 31
0.0
  0
LINE
  5
7357
330
7348
100
AcDbEntity
  8
标注
  6
Continuous
370
    -2
100
AcDbLine
 10
1089.706921980526
 20
125.3063981111345
 30
0.0
 11
1094.482885361161
 21
125.3063981111345
 31
0.0
  0
LINE
  5
7358
330
7348
100
AcDbEntity
  8
标注
  6
Continuous
370
    -2
100
AcDbLine
 10
1102.56437398054
 20
125.3063981111345
 30
0.0
 11
1097.788410599905
 21
125.3063981111345
 31
0.0
  0
SOLID
  5
7359
330
7348
100
AcDbEntity
  8
标注
100
AcDbTrace
 10
1089.706921980526
 20
125.4147314444678
 30
0.0
 11
1089.706921980526
 21
125.1980647778011
 31
0.0
 12
1089.056921980526
 22
125.3063981111345
 32
0.0
 13
1089.056921980526
 23
125.3063981111345
 33
0.0
  0
SOLID
  5
735A
330
7348
100
AcDbEntity
  8
标注
100
AcDbTrace
 10
1102.56437398054
 20
125.4147314444678
 30
0.0
 11
1102.56437398054
 21
125.1980647778011
 31
0.0
 12
1103.21437398054
 22
125.3063981111345
 32
0.0
 13
1103.21437398054
 23
125.3063981111345
 33
0.0
  0
MTEXT
  5
735B
330
7348
100
AcDbEntity
  8
标注
100
AcDbMText
 10
1096.135647980533
 20
125.3063981111345
 30
0.0
 40
0.65
 41
0.0
 71
     5
 72
     1
  1
\A1;14 1/8"
 73
     1
 44
1.0
1001
ACAD
1000
MTEXTBEGIN
1070
    73
1070
     1
1070
    44
1040
1.0
1070
    74
1070
     0
1000
MTEXTEND
  0
POINT
  5
735C
330
7348
100
AcDbEntity
  8
DEFPOINTS
 62
     0
100
AcDbPoint
 10
1089.056921980526
 20
122.7781981445992
 30
0.0
  0
POINT
  5
735D
330
7348
100
AcDbEntity
  8
DEFPOINTS
 62
     0
100
AcDbPoint
 10
1103.21437398054
 20
122.7781981445992
 30
0.0
  0
POINT
  5
735E
330
7348
100
AcDbEntity
  8
DEFPOINTS
 62
     0
100
AcDbPoint
 10
1103.21437398054
 20
125.3063981111345
 30
0.0
  0
ENDBLK
  5
734A
330
7348
100
AcDbEntity
  8
0
100
AcDbBlockEnd
  0
BLOCK
  5
7361
330
7360
100
AcDbEntity
  8
0
100
AcDbBlockBegin
  2
*D34
 70
     1
 10
0.0
 20
0.0
 30
0.0
  3
*D34
  1

  0
LINE
  5
7373
330
7360
100
AcDbEntity
  8
标注
  6
Continuous
370
    -2
100
AcDbLine
 10
1088.600416129385
 20
104.9356094155321
 30
0.0
 11
1088.062467728363
 21
104.5707649036671
 31
0.0
  0
MTEXT
  5
7374
330
7360
100
AcDbEntity
  8
标注
100
AcDbMText
 10
1090.252077046784
 20
106.6012742698748
 30
0.0
 40
0.65
 41
0.0
 71
     5
 72
     1
  1
\A1;5-R1/2"
 11
0.8276129246490262
 21
0.5612992490230905
 31
0.0
 73
     1
 44
1.0
1001
ACAD
1000
MTEXTBEGIN
1070
    73
1070
     1
1070
    44
1040
1.0
1070
    74
1070
     0
1000
MTEXTEND
  0
LINE
  5
7375
330
7360
100
AcDbEntity
  8
标注
  6
Continuous
370
    -2
100
AcDbLine
 10
1089.529361980538
 20
105.5656341446125
 30
0.0
 11
1089.138364530407
 21
105.3004539273969
 31
0.0
  0
SOLID
  5
7376
330
7360
100
AcDbEntity
  8
标注
100
AcDbTrace
 10
1088.539608710741
 20
105.025267482369
 30
0.0
 11
1088.661223548029
 21
104.845951348695
 31
0.0
 12
1089.138364530407
 22
105.3004539273969
 32
0.0
 13
1089.138364530407
 23
105.3004539273969
 33
0.0
  0
POINT
  5
7377
330
7360
100
AcDbEntity
  8
DEFPOINTS
 62
     0
100
AcDbPoint
 10
1089.138364530407
 20
105.3004539273969
 30
0.0
  0
POINT
  5
7378
330
7360
100
AcDbEntity
  8
DEFPOINTS
 62
     0
100
AcDbPoint
 10
1089.529361980538
 20
105.5656341446125
 30
0.0
  0
ENDBLK
  5
7362
330
7360
100
AcDbEntity
  8
0
100
AcDbBlockEnd
  0
BLOCK
  5
736B
330
736A
100
AcDbEntity
  8
0
100
AcDbBlockBegin
  2
*D35
 70
     1
 10
0.0
 20
0.0
 30
0.0
  3
*D35
  1

  0
LINE
  5
736D
330
736A
100
AcDbEntity
  8
标注
  6
Continuous
370
    -2
100
AcDbLine
 10
1102.875767389031
 20
120.9006777404331
 30
0.0
 11
1102.419698322749
 21
120.4375352064538
 31
0.0
  0
MTEXT
  5
736E
330
736A
100
AcDbEntity
  8
标注
100
AcDbMText
 10
1101.959465458571
 20
120.9669595160036
 30
0.0
 40
0.65
 41
0.0
 71
     5
 72
     1
  1
\A1;R3/8"
 11
0.7016447173567569
 21
0.7125269753527629
 31
0.0
 73
     1
 44
1.0
1001
ACAD
1000
MTEXTBEGIN
1070
    73
1070
     1
1070
    44
1040
1.0
1070
    74
1070
     0
1000
MTEXTEND
  0
LINE
  5
736F
330
736A
100
AcDbEntity
  8
标注
  6
Continuous
370
    -2
100
AcDbLine
 10
1103.608073980526
 20
121.6443421445988
 30
0.0
 11
1103.331836455312
 21
121.3638202744124
 31
0.0
  0
SOLID
  5
7370
330
736A
100
AcDbEntity
  8
标注
100
AcDbTrace
 10
1102.798576966701
 20
120.9766892514801
 30
0.0
 11
1102.952957811361
 21
120.8246662293861
 31
0.0
 12
1103.331836455312
 22
121.3638202744124
 32
0.0
 13
1103.331836455312
 23
121.3638202744124
 33
0.0
  0
POINT
  5
7371
330
736A
100
AcDbEntity
  8
DEFPOINTS
 62
     0
100
AcDbPoint
 10
1103.331836455312
 20
121.3638202744124
 30
0.0
  0
POINT
  5
7372
330
736A
100
AcDbEntity
  8
DEFPOINTS
 62
     0
100
AcDbPoint
 10
1103.608073980526
 20
121.6443421445988
 30
0.0
  0
ENDBLK
  5
736C
330
736A
100
AcDbEntity
  8
0
100
AcDbBlockEnd
  0
BLOCK
  5
7386
330
7385
100
AcDbEntity
  8
0
100
AcDbBlockBegin
  2
*D36
 70
     1
 10
0.0
 20
0.0
 30
0.0
  3
*D36
  1

  0
LINE
  5
7388
330
7385
100
AcDbEntity
  8
标注
  6
Continuous
370
    -2
100
AcDbLine
 10
1087.826134914264
 20
139.8318158697311
 30
0.0
 11
1087.826134914264
 21
137.3565026903683
 31
0.0
  0
LINE
  5
7389
330
7385
100
AcDbEntity
  8
标注
  6
Continuous
370
    -2
100
AcDbLine
 10
1101.826106914253
 20
139.8318158697311
 30
0.0
 11
1101.826106914253
 21
137.3565026903683
 31
0.0
  0
LINE
  5
738A
330
7385
100
AcDbEntity
  8
标注
  6
Continuous
370
    -2
100
AcDbLine
 10
1088.476134914264
 20
137.6765026903683
 30
0.0
 11
1093.930657067055
 21
137.6765026903683
 31
0.0
  0
LINE
  5
738B
330
7385
100
AcDbEntity
  8
标注
  6
Continuous
370
    -2
100
AcDbLine
 10
1101.176106914253
 20
137.6765026903683
 30
0.0
 11
1095.721584761462
 21
137.6765026903683
 31
0.0
  0
SOLID
  5
738C
330
7385
100
AcDbEntity
  8
标注
100
AcDbTrace
 10
1088.476134914264
 20
137.7848360237017
 30
0.0
 11
1088.476134914264
 21
137.568169357035
 31
0.0
 12
1087.826134914264
 22
137.6765026903683
 32
0.0
 13
1087.826134914264
 23
137.6765026903683
 33
0.0
  0
SOLID
  5
738D
330
7385
100
AcDbEntity
  8
标注
100
AcDbTrace
 10
1101.176106914253
 20
137.7848360237017
 30
0.0
 11
1101.176106914253
 21
137.568169357035
 31
0.0
 12
1101.826106914253
 22
137.6765026903683
 32
0.0
 13
1101.826106914253
 23
137.6765026903683
 33
0.0
  0
MTEXT
  5
738E
330
7385
100
AcDbEntity
  8
标注
100
AcDbMText
 10
1094.826120914259
 20
137.6765026903683
 30
0.0
 40
0.65
 41
0.0
 71
     5
 72
     1
  1
\A1;14"
 73
     1
 44
1.0
1001
ACAD
1000
MTEXTBEGIN
1070
    73
1070
     1
1070
    44
1040
1.0
1070
    74
1070
     0
1000
MTEXTEND
  0
POINT
  5
738F
330
7385
100
AcDbEntity
  8
DEFPOINTS
 62
     0
100
AcDbPoint
 10
1087.826134914264
 20
140.7118158697311
 30
0.0
  0
POINT
  5
7390
330
7385
100
AcDbEntity
  8
DEFPOINTS
 62
     0
100
AcDbPoint
 10
1101.826106914253
 20
140.7118158697311
 30
0.0
  0
POINT
  5
7391
330
7385
100
AcDbEntity
  8
DEFPOINTS
 62
     0
100
AcDbPoint
 10
1101.826106914253
 20
137.6765026903683
 30
0.0
  0
ENDBLK
  5
7387
330
7385
100
AcDbEntity
  8
0
100
AcDbBlockEnd
  0
BLOCK
  5
7394
330
7393
100
AcDbEntity
  8
0
100
AcDbBlockBegin
  2
*D37
 70
     1
 10
0.0
 20
0.0
 30
0.0
  3
*D37
  1

  0
LINE
  5
7396
330
7393
100
AcDbEntity
  8
标注
  6
Continuous
370
    -2
100
AcDbLine
 10
1102.826104914253
 20
139.8318158697311
 30
0.0
 11
1102.826104914253
 21
137.3565026903683
 31
0.0
  0
LINE
  5
7397
330
7393
100
AcDbEntity
  8
标注
  6
Continuous
370
    -2
100
AcDbLine
 10
1116.326077914251
 20
139.8318158697311
 30
0.0
 11
1116.326077914251
 21
137.3565026903683
 31
0.0
  0
LINE
  5
7398
330
7393
100
AcDbEntity
  8
标注
  6
Continuous
370
    -2
100
AcDbLine
 10
1103.476104914253
 20
137.6765026903683
 30
0.0
 11
1107.923328794879
 21
137.6765026903683
 31
0.0
  0
LINE
  5
7399
330
7393
100
AcDbEntity
  8
标注
  6
Continuous
370
    -2
100
AcDbLine
 10
1115.676077914251
 20
137.6765026903683
 30
0.0
 11
1111.228854033624
 21
137.6765026903683
 31
0.0
  0
SOLID
  5
739A
330
7393
100
AcDbEntity
  8
标注
100
AcDbTrace
 10
1103.476104914253
 20
137.7848360237017
 30
0.0
 11
1103.476104914253
 21
137.568169357035
 31
0.0
 12
1102.826104914253
 22
137.6765026903683
 32
0.0
 13
1102.826104914253
 23
137.6765026903683
 33
0.0
  0
SOLID
  5
739B
330
7393
100
AcDbEntity
  8
标注
100
AcDbTrace
 10
1115.676077914251
 20
137.7848360237017
 30
0.0
 11
1115.676077914251
 21
137.568169357035
 31
0.0
 12
1116.326077914251
 22
137.6765026903683
 32
0.0
 13
1116.326077914251
 23
137.6765026903683
 33
0.0
  0
MTEXT
  5
739C
330
7393
100
AcDbEntity
  8
标注
100
AcDbMText
 10
1109.576091414252
 20
137.6765026903683
 30
0.0
 40
0.65
 41
0.0
 71
     5
 72
     1
  1
\A1;13 1/2"
 73
     1
 44
1.0
1001
ACAD
1000
MTEXTBEGIN
1070
    73
1070
     1
1070
    44
1040
1.0
1070
    74
1070
     0
1000
MTEXTEND
  0
POINT
  5
739D
330
7393
100
AcDbEntity
  8
DEFPOINTS
 62
     0
100
AcDbPoint
 10
1102.826104914253
 20
140.7118158697311
 30
0.0
  0
POINT
  5
739E
330
7393
100
AcDbEntity
  8
DEFPOINTS
 62
     0
100
AcDbPoint
 10
1116.326077914251
 20
140.7118158697311
 30
0.0
  0
POINT
  5
739F
330
7393
100
AcDbEntity
  8
DEFPOINTS
 62
     0
100
AcDbPoint
 10
1116.326077914251
 20
137.6765026903683
 30
0.0
  0
ENDBLK
  5
7395
330
7393
100
AcDbEntity
  8
0
100
AcDbBlockEnd
  0
BLOCK
  5
73A2
330
73A1
100
AcDbEntity
  8
0
100
AcDbBlockBegin
  2
*D38
 70
     1
 10
0.0
 20
0.0
 30
0.0
  3
*D38
  1

  0
LINE
  5
73A4
330
73A1
100
AcDbEntity
  8
标注
  6
Continuous
370
    -2
100
AcDbLine
 10
1086.826136914264
 20
139.2530768697415
 30
0.0
 11
1086.826136914264
 21
135.5217993268533
 31
0.0
  0
LINE
  5
73A5
330
73A1
100
AcDbEntity
  8
标注
  6
Continuous
370
    -2
100
AcDbLine
 10
1117.326075914265
 20
139.2530768697415
 30
0.0
 11
1117.326075914265
 21
135.5217993268533
 31
0.0
  0
LINE
  5
73A6
330
73A1
100
AcDbEntity
  8
标注
  6
Continuous
370
    -2
100
AcDbLine
 10
1087.476136914264
 20
135.8417993268533
 30
0.0
 11
1100.392972035001
 21
135.8417993268533
 31
0.0
  0
LINE
  5
73A7
330
73A1
100
AcDbEntity
  8
标注
  6
Continuous
370
    -2
100
AcDbLine
 10
1116.676075914265
 20
135.8417993268533
 30
0.0
 11
1103.759240793528
 21
135.8417993268533
 31
0.0
  0
SOLID
  5
73A8
330
73A1
100
AcDbEntity
  8
标注
100
AcDbTrace
 10
1087.476136914264
 20
135.9501326601866
 30
0.0
 11
1087.476136914264
 21
135.73346599352
 31
0.0
 12
1086.826136914264
 22
135.8417993268533
 32
0.0
 13
1086.826136914264
 23
135.8417993268533
 33
0.0
  0
SOLID
  5
73A9
330
73A1
100
AcDbEntity
  8
标注
100
AcDbTrace
 10
1116.676075914265
 20
135.9501326601866
 30
0.0
 11
1116.676075914265
 21
135.73346599352
 31
0.0
 12
1117.326075914265
 22
135.8417993268533
 32
0.0
 13
1117.326075914265
 23
135.8417993268533
 33
0.0
  0
MTEXT
  5
73AA
330
73A1
100
AcDbEntity
  8
标注
100
AcDbMText
 10
1102.076106414265
 20
135.8417993268533
 30
0.0
 40
0.65
 41
0.0
 71
     5
 72
     1
  1
\A1;30 1/2"
 73
     1
 44
1.0
1001
ACAD
1000
MTEXTBEGIN
1070
    73
1070
     1
1070
    44
1040
1.0
1070
    74
1070
     0
1000
MTEXTEND
  0
POINT
  5
73AB
330
73A1
100
AcDbEntity
  8
DEFPOINTS
 62
     0
100
AcDbPoint
 10
1086.826136914264
 20
140.1330768697415
 30
0.0
  0
POINT
  5
73AC
330
73A1
100
AcDbEntity
  8
DEFPOINTS
 62
     0
100
AcDbPoint
 10
1117.326075914265
 20
140.1330768697415
 30
0.0
  0
POINT
  5
73AD
330
73A1
100
AcDbEntity
  8
DEFPOINTS
 62
     0
100
AcDbPoint
 10
1117.326075914265
 20
135.8417993268533
 30
0.0
  0
ENDBLK
  5
73A3
330
73A1
100
AcDbEntity
  8
0
100
AcDbBlockEnd
  0
BLOCK
  5
73B0
330
73AF
100
AcDbEntity
  8
0
100
AcDbBlockBegin
  2
*D39
 70
     1
 10
0.0
 20
0.0
 30
0.0
  3
*D39
  1

  0
LINE
  5
73B2
330
73AF
100
AcDbEntity
  8
标注
  6
Continuous
370
    -2
100
AcDbLine
 10
1116.812377914266
 20
140.3181158697451
 30
0.0
 11
1119.648475386316
 21
140.3181158697451
 31
0.0
  0
LINE
  5
73B3
330
73AF
100
AcDbEntity
  8
标注
  6
Continuous
370
    -2
100
AcDbLine
 10
1116.812377914266
 20
156.3180838697343
 30
0.0
 11
1119.648475386316
 21
156.3180838697343
 31
0.0
  0
LINE
  5
73B4
330
73AF
100
AcDbEntity
  8
标注
  6
Continuous
370
    -2
100
AcDbLine
 10
1119.328475386316
 20
140.9681158697451
 30
0.0
 11
1119.328475386316
 21
147.4226360225364
 31
0.0
  0
LINE
  5
73B5
330
73AF
100
AcDbEntity
  8
标注
  6
Continuous
370
    -2
100
AcDbLine
 10
1119.328475386316
 20
155.6680838697343
 30
0.0
 11
1119.328475386316
 21
149.213563716943
 31
0.0
  0
SOLID
  5
73B6
330
73AF
100
AcDbEntity
  8
标注
100
AcDbTrace
 10
1119.220142052982
 20
140.9681158697451
 30
0.0
 11
1119.436808719649
 21
140.9681158697451
 31
0.0
 12
1119.328475386316
 22
140.3181158697451
 32
0.0
 13
1119.328475386316
 23
140.3181158697451
 33
0.0
  0
SOLID
  5
73B7
330
73AF
100
AcDbEntity
  8
标注
100
AcDbTrace
 10
1119.220142052982
 20
155.6680838697343
 30
0.0
 11
1119.436808719649
 21
155.6680838697343
 31
0.0
 12
1119.328475386316
 22
156.3180838697343
 32
0.0
 13
1119.328475386316
 23
156.3180838697343
 33
0.0
  0
MTEXT
  5
73B8
330
73AF
100
AcDbEntity
  8
标注
100
AcDbMText
 10
1119.328475386316
 20
148.3180998697399
 30
0.0
 40
0.65
 41
0.0
 71
     5
 72
     1
  1
\A1;16"
 11
0.0000000000000001
 21
1.0
 31
0.0
 73
     1
 44
1.0
1001
ACAD
1000
MTEXTBEGIN
1070
    73
1070
     1
1070
    44
1040
1.0
1070
    74
1070
     0
1000
MTEXTEND
  0
POINT
  5
73B9
330
73AF
100
AcDbEntity
  8
DEFPOINTS
 62
     0
100
AcDbPoint
 10
1115.932377914265
 20
140.3181158697451
 30
0.0
  0
POINT
  5
73BA
330
73AF
100
AcDbEntity
  8
DEFPOINTS
 62
     0
100
AcDbPoint
 10
1115.932377914265
 20
156.3180838697343
 30
0.0
  0
POINT
  5
73BB
330
73AF
100
AcDbEntity
  8
DEFPOINTS
 62
     0
100
AcDbPoint
 10
1119.328475386316
 20
156.3180838697343
 30
0.0
  0
ENDBLK
  5
73B1
330
73AF
100
AcDbEntity
  8
0
100
AcDbBlockEnd
  0
BLOCK
  5
73BE
330
73BD
100
AcDbEntity
  8
0
100
AcDbBlockBegin
  2
*D40
 70
     1
 10
0.0
 20
0.0
 30
0.0
  3
*D40
  1

  0
LINE
  5
73C0
330
73BD
100
AcDbEntity
  8
标注
  6
Continuous
370
    -2
100
AcDbLine
 10
1117.206077914251
 20
139.3181178697313
 30
0.0
 11
1121.399578579382
 21
139.3181178697313
 31
0.0
  0
LINE
  5
73C1
330
73BD
100
AcDbEntity
  8
标注
  6
Continuous
370
    -2
100
AcDbLine
 10
1117.206077914251
 20
157.3180818697482
 30
0.0
 11
1121.399578579382
 21
157.3180818697482
 31
0.0
  0
LINE
  5
73C2
330
73BD
100
AcDbEntity
  8
标注
  6
Continuous
370
    -2
100
AcDbLine
 10
1121.079578579382
 20
139.9681178697313
 30
0.0
 11
1121.079578579382
 21
147.4226360225364
 31
0.0
  0
LINE
  5
73C3
330
73BD
100
AcDbEntity
  8
标注
  6
Continuous
370
    -2
100
AcDbLine
 10
1121.079578579382
 20
156.6680818697482
 30
0.0
 11
1121.079578579382
 21
149.213563716943
 31
0.0
  0
SOLID
  5
73C4
330
73BD
100
AcDbEntity
  8
标注
100
AcDbTrace
 10
1120.971245246049
 20
139.9681178697313
 30
0.0
 11
1121.187911912715
 21
139.9681178697313
 31
0.0
 12
1121.079578579382
 22
139.3181178697313
 32
0.0
 13
1121.079578579382
 23
139.3181178697313
 33
0.0
  0
SOLID
  5
73C5
330
73BD
100
AcDbEntity
  8
标注
100
AcDbTrace
 10
1120.971245246049
 20
156.6680818697482
 30
0.0
 11
1121.187911912715
 21
156.6680818697482
 31
0.0
 12
1121.079578579382
 22
157.3180818697482
 32
0.0
 13
1121.079578579382
 23
157.3180818697482
 33
0.0
  0
MTEXT
  5
73C6
330
73BD
100
AcDbEntity
  8
标注
100
AcDbMText
 10
1121.079578579382
 20
148.3180998697399
 30
0.0
 40
0.65
 41
0.0
 71
     5
 72
     1
  1
\A1;18"
 11
0.0000000000000001
 21
1.0
 31
0.0
 73
     1
 44
1.0
1001
ACAD
1000
MTEXTBEGIN
1070
    73
1070
     1
1070
    44
1040
1.0
1070
    74
1070
     0
1000
MTEXTEND
  0
POINT
  5
73C7
330
73BD
100
AcDbEntity
  8
DEFPOINTS
 62
     0
100
AcDbPoint
 10
1116.326077914251
 20
139.3181178697313
 30
0.0
  0
POINT
  5
73C8
330
73BD
100
AcDbEntity
  8
DEFPOINTS
 62
     0
100
AcDbPoint
 10
1116.326077914251
 20
157.3180818697482
 30
0.0
  0
POINT
  5
73C9
330
73BD
100
AcDbEntity
  8
DEFPOINTS
 62
     0
100
AcDbPoint
 10
1121.079578579382
 20
157.3180818697482
 30
0.0
  0
ENDBLK
  5
73BF
330
73BD
100
AcDbEntity
  8
0
100
AcDbBlockEnd
  0
BLOCK
  5
73CC
330
73CB
100
AcDbEntity
  8
0
100
AcDbBlockBegin
  2
*D41
 70
     1
 10
0.0
 20
0.0
 30
0.0
  3
*D41
  1

  0
LINE
  5
73CE
330
73CB
100
AcDbEntity
  8
标注
  6
Continuous
370
    -2
100
AcDbLine
 10
1087.339834914264
 20
140.3181158697452
 30
0.0
 11
1084.31469797616
 21
140.3181158697452
 31
0.0
  0
LINE
  5
73CF
330
73CB
100
AcDbEntity
  8
标注
  6
Continuous
370
    -2
100
AcDbLine
 10
1087.339834914264
 20
158.318079869747
 30
0.0
 11
1084.31469797616
 21
158.318079869747
 31
0.0
  0
LINE
  5
73D0
330
73CB
100
AcDbEntity
  8
标注
  6
Continuous
370
    -2
100
AcDbLine
 10
1084.63469797616
 20
140.9681158697452
 30
0.0
 11
1084.63469797616
 21
148.4226340225428
 31
0.0
  0
LINE
  5
73D1
330
73CB
100
AcDbEntity
  8
标注
  6
Continuous
370
    -2
100
AcDbLine
 10
1084.63469797616
 20
157.668079869747
 30
0.0
 11
1084.63469797616
 21
150.2135617169494
 31
0.0
  0
SOLID
  5
73D2
330
73CB
100
AcDbEntity
  8
标注
100
AcDbTrace
 10
1084.526364642827
 20
140.9681158697452
 30
0.0
 11
1084.743031309493
 21
140.9681158697452
 31
0.0
 12
1084.63469797616
 22
140.3181158697452
 32
0.0
 13
1084.63469797616
 23
140.3181158697452
 33
0.0
  0
SOLID
  5
73D3
330
73CB
100
AcDbEntity
  8
标注
100
AcDbTrace
 10
1084.526364642827
 20
157.668079869747
 30
0.0
 11
1084.743031309493
 21
157.668079869747
 31
0.0
 12
1084.63469797616
 22
158.318079869747
 32
0.0
 13
1084.63469797616
 23
158.318079869747
 33
0.0
  0
MTEXT
  5
73D4
330
73CB
100
AcDbEntity
  8
标注
100
AcDbMText
 10
1084.63469797616
 20
149.3180978697463
 30
0.0
 40
0.65
 41
0.0
 71
     5
 72
     1
  1
\A1;18"
 11
0.0000000000000001
 21
1.0
 31
0.0
 73
     1
 44
1.0
1001
ACAD
1000
MTEXTBEGIN
1070
    73
1070
     1
1070
    44
1040
1.0
1070
    74
1070
     0
1000
MTEXTEND
  0
POINT
  5
73D5
330
73CB
100
AcDbEntity
  8
DEFPOINTS
 62
     0
100
AcDbPoint
 10
1088.219834914264
 20
140.3181158697451
 30
0.0
  0
POINT
  5
73D6
330
73CB
100
AcDbEntity
  8
DEFPOINTS
 62
     0
100
AcDbPoint
 10
1088.219834914264
 20
158.3180798697469
 30
0.0
  0
POINT
  5
73D7
330
73CB
100
AcDbEntity
  8
DEFPOINTS
 62
     0
100
AcDbPoint
 10
1084.63469797616
 20
158.318079869747
 30
0.0
  0
ENDBLK
  5
73CD
330
73CB
100
AcDbEntity
  8
0
100
AcDbBlockEnd
  0
BLOCK
  5
73DA
330
73D9
100
AcDbEntity
  8
0
100
AcDbBlockBegin
  2
*D42
 70
     1
 10
0.0
 20
0.0
 30
0.0
  3
*D42
  1

  0
LINE
  5
73DC
330
73D9
100
AcDbEntity
  8
标注
  6
Continuous
370
    -2
100
AcDbLine
 10
1086.946134914264
 20
139.3181178697313
 30
0.0
 11
1082.726852525392
 21
139.3181178697313
 31
0.0
  0
LINE
  5
73DD
330
73D9
100
AcDbEntity
  8
标注
  6
Continuous
370
    -2
100
AcDbLine
 10
1086.946134914264
 20
159.3180778697468
 30
0.0
 11
1082.726852525392
 21
159.3180778697468
 31
0.0
  0
LINE
  5
73DE
330
73D9
100
AcDbEntity
  8
标注
  6
Continuous
370
    -2
100
AcDbLine
 10
1083.046852525392
 20
139.9681178697313
 30
0.0
 11
1083.046852525392
 21
148.386498279016
 31
0.0
  0
LINE
  5
73DF
330
73D9
100
AcDbEntity
  8
标注
  6
Continuous
370
    -2
100
AcDbLine
 10
1083.046852525392
 20
158.6680778697468
 30
0.0
 11
1083.046852525392
 21
150.2496974604621
 31
0.0
  0
SOLID
  5
73E0
330
73D9
100
AcDbEntity
  8
标注
100
AcDbTrace
 10
1082.938519192059
 20
139.9681178697313
 30
0.0
 11
1083.155185858726
 21
139.9681178697313
 31
0.0
 12
1083.046852525392
 22
139.3181178697313
 32
0.0
 13
1083.046852525392
 23
139.3181178697313
 33
0.0
  0
SOLID
  5
73E1
330
73D9
100
AcDbEntity
  8
标注
100
AcDbTrace
 10
1082.938519192059
 20
158.6680778697468
 30
0.0
 11
1083.155185858726
 21
158.6680778697468
 31
0.0
 12
1083.046852525392
 22
159.3180778697468
 32
0.0
 13
1083.046852525392
 23
159.3180778697468
 33
0.0
  0
MTEXT
  5
73E2
330
73D9
100
AcDbEntity
  8
标注
100
AcDbMText
 10
1083.046852525392
 20
149.3180978697392
 30
0.0
 40
0.65
 41
0.0
 71
     5
 72
     1
  1
\A1;20"
 11
0.0000000000000001
 21
1.0
 31
0.0
 73
     1
 44
1.0
1001
ACAD
1000
MTEXTBEGIN
1070
    73
1070
     1
1070
    44
1040
1.0
1070
    74
1070
     0
1000
MTEXTEND
  0
POINT
  5
73E3
330
73D9
100
AcDbEntity
  8
DEFPOINTS
 62
     0
100
AcDbPoint
 10
1087.826134914264
 20
139.3181178697313
 30
0.0
  0
POINT
  5
73E4
330
73D9
100
AcDbEntity
  8
DEFPOINTS
 62
     0
100
AcDbPoint
 10
1087.826134914264
 20
159.3180778697468
 30
0.0
  0
POINT
  5
73E5
330
73D9
100
AcDbEntity
  8
DEFPOINTS
 62
     0
100
AcDbPoint
 10
1083.046852525392
 20
159.3180778697468
 30
0.0
  0
ENDBLK
  5
73DB
330
73D9
100
AcDbEntity
  8
0
100
AcDbBlockEnd
  0
BLOCK
  5
73E8
330
73E7
100
AcDbEntity
  8
0
100
AcDbBlockBegin
  2
*D43
 70
     1
 10
0.0
 20
0.0
 30
0.0
  3
*D43
  1

  0
LINE
  5
73FE
330
73E7
100
AcDbEntity
  8
标注
  6
Continuous
370
    -2
100
AcDbLine
 10
1118.206075914265
 20
182.553668824868
 30
0.0
 11
1119.27042847519
 21
182.553668824868
 31
0.0
  0
LINE
  5
73FF
330
73E7
100
AcDbEntity
  8
标注
  6
Continuous
370
    -2
100
AcDbLine
 10
1117.403086721223
 20
174.4949172258676
 30
0.0
 11
1119.27042847519
 21
174.4949172258676
 31
0.0
  0
LINE
  5
7400
330
73E7
100
AcDbEntity
  8
标注
  6
Continuous
370
    -2
100
AcDbLine
 10
1118.95042847519
 20
181.903668824868
 30
0.0
 11
1118.95042847519
 21
179.1982868862137
 31
0.0
  0
LINE
  5
7401
330
73E7
100
AcDbEntity
  8
标注
  6
Continuous
370
    -2
100
AcDbLine
 10
1118.95042847519
 20
175.1449172258676
 30
0.0
 11
1118.95042847519
 21
177.850299164522
 31
0.0
  0
SOLID
  5
7402
330
73E7
100
AcDbEntity
  8
标注
100
AcDbTrace
 10
1118.842095141857
 20
181.903668824868
 30
0.0
 11
1119.058761808524
 21
181.903668824868
 31
0.0
 12
1118.95042847519
 22
182.553668824868
 32
0.0
 13
1118.95042847519
 23
182.553668824868
 33
0.0
  0
SOLID
  5
7403
330
73E7
100
AcDbEntity
  8
标注
100
AcDbTrace
 10
1118.842095141857
 20
175.1449172258676
 30
0.0
 11
1119.058761808524
 21
175.1449172258676
 31
0.0
 12
1118.95042847519
 22
174.4949172258676
 32
0.0
 13
1118.95042847519
 23
174.4949172258676
 33
0.0
  0
MTEXT
  5
7404
330
73E7
100
AcDbEntity
  8
标注
100
AcDbMText
 10
1118.95042847519
 20
178.524293025368
 30
0.0
 40
0.65
 41
0.0
 71
     5
 72
     1
  1
\A1;8"
 11
0.0000000000000001
 21
1.0
 31
0.0
 73
     1
 44
1.0
1001
ACAD
1000
MTEXTBEGIN
1070
    73
1070
     1
1070
    44
1040
1.0
1070
    74
1070
     0
1000
MTEXTEND
  0
POINT
  5
7405
330
73E7
100
AcDbEntity
  8
DEFPOINTS
 62
     0
100
AcDbPoint
 10
1117.326075914265
 20
182.553668824868
 30
0.0
  0
POINT
  5
7406
330
73E7
100
AcDbEntity
  8
DEFPOINTS
 62
     0
100
AcDbPoint
 10
1116.523086721223
 20
174.4949172258676
 30
0.0
  0
POINT
  5
7407
330
73E7
100
AcDbEntity
  8
DEFPOINTS
 62
     0
100
AcDbPoint
 10
1118.95042847519
 20
174.4949172258676
 30
0.0
  0
ENDBLK
  5
73E9
330
73E7
100
AcDbEntity
  8
0
100
AcDbBlockEnd
  0
BLOCK
  5
740A
330
7409
100
AcDbEntity
  8
0
100
AcDbBlockBegin
  2
*D44
 70
     1
 10
0.0
 20
0.0
 30
0.0
  3
*D44
  1

  0
LINE
  5
7416
330
7409
100
AcDbEntity
  8
标注
  6
Continuous
370
    -2
100
AcDbLine
 10
1085.946136914264
 20
182.553668824868
 30
0.0
 11
1084.314972872463
 21
182.553668824868
 31
0.0
  0
LINE
  5
7417
330
7409
100
AcDbEntity
  8
标注
  6
Continuous
370
    -2
100
AcDbLine
 10
1086.154729839747
 20
172.4949212258793
 30
0.0
 11
1084.314972872463
 21
172.4949212258793
 31
0.0
  0
LINE
  5
7418
330
7409
100
AcDbEntity
  8
标注
  6
Continuous
370
    -2
100
AcDbLine
 10
1084.634972872463
 20
181.903668824868
 30
0.0
 11
1084.634972872463
 21
178.4197588725769
 31
0.0
  0
LINE
  5
7419
330
7409
100
AcDbEntity
  8
标注
  6
Continuous
370
    -2
100
AcDbLine
 10
1084.634972872463
 20
173.1449212258793
 30
0.0
 11
1084.634972872463
 21
176.6288311781704
 31
0.0
  0
SOLID
  5
741A
330
7409
100
AcDbEntity
  8
标注
100
AcDbTrace
 10
1084.526639539129
 20
181.903668824868
 30
0.0
 11
1084.743306205796
 21
181.903668824868
 31
0.0
 12
1084.634972872463
 22
182.553668824868
 32
0.0
 13
1084.634972872463
 23
182.553668824868
 33
0.0
  0
SOLID
  5
741B
330
7409
100
AcDbEntity
  8
标注
100
AcDbTrace
 10
1084.526639539129
 20
173.1449212258793
 30
0.0
 11
1084.743306205796
 21
173.1449212258793
 31
0.0
 12
1084.634972872463
 22
172.4949212258793
 32
0.0
 13
1084.634972872463
 23
172.4949212258793
 33
0.0
  0
MTEXT
  5
741C
330
7409
100
AcDbEntity
  8
标注
100
AcDbMText
 10
1084.634972872463
 20
177.5242950253739
 30
0.0
 40
0.65
 41
0.0
 71
     5
 72
     1
  1
\A1;10"
 11
0.0000000000000001
 21
1.0
 31
0.0
 73
     1
 44
1.0
1001
ACAD
1000
MTEXTBEGIN
1070
    73
1070
     1
1070
    44
1040
1.0
1070
    74
1070
     0
1000
MTEXTEND
  0
POINT
  5
741D
330
7409
100
AcDbEntity
  8
DEFPOINTS
 62
     0
100
AcDbPoint
 10
1086.826136914264
 20
182.553668824868
 30
0.0
  0
POINT
  5
741E
330
7409
100
AcDbEntity
  8
DEFPOINTS
 62
     0
100
AcDbPoint
 10
1087.034729839747
 20
172.4949212258793
 30
0.0
  0
POINT
  5
741F
330
7409
100
AcDbEntity
  8
DEFPOINTS
 62
     0
100
AcDbPoint
 10
1084.634972872463
 20
172.4949212258793
 30
0.0
  0
ENDBLK
  5
740B
330
7409
100
AcDbEntity
  8
0
100
AcDbBlockEnd
  0
BLOCK
  5
7422
330
7421
100
AcDbEntity
  8
0
100
AcDbBlockBegin
  2
*D45
 70
     1
 10
0.0
 20
0.0
 30
0.0
  3
*D45
  1

  0
LINE
  5
7424
330
7421
100
AcDbEntity
  8
标注
  6
Continuous
370
    -2
100
AcDbLine
 10
1087.515670265289
 20
139.9414511268111
 30
0.0
 11
1087.07712755969
 21
139.4616800403897
 31
0.0
  0
MTEXT
  5
7425
330
7421
100
AcDbEntity
  8
标注
100
AcDbMText
 10
1088.744095315714
 20
141.7915725005915
 30
0.0
 40
0.65
 41
0.0
 71
     5
 72
     1
  1
\A1;R3/8"
 11
0.6746810855368001
 21
0.7381093637252444
 31
0.0
 73
     1
 44
1.0
1001
ACAD
1000
MTEXTBEGIN
1070
    73
1070
     1
1070
    44
1040
1.0
1070
    74
1070
     0
1000
MTEXTEND
  0
LINE
  5
7426
330
7421
100
AcDbEntity
  8
标注
  6
Continuous
370
    -2
100
AcDbLine
 10
1088.219834914264
 20
140.7118158697312
 30
0.0
 11
1087.954212970888
 21
140.4212222132325
 31
0.0
  0
SOLID
  5
7427
330
7421
100
AcDbEntity
  8
标注
100
AcDbTrace
 10
1087.435708417552
 20
140.0145415777443
 30
0.0
 11
1087.595632113026
 21
139.868360675878
 31
0.0
 12
1087.954212970888
 22
140.4212222132325
 32
0.0
 13
1087.954212970888
 23
140.4212222132325
 33
0.0
  0
POINT
  5
7428
330
7421
100
AcDbEntity
  8
DEFPOINTS
 62
     0
100
AcDbPoint
 10
1087.954212970888
 20
140.4212222132325
 30
0.0
  0
POINT
  5
7429
330
7421
100
AcDbEntity
  8
DEFPOINTS
 62
     0
100
AcDbPoint
 10
1088.219834914264
 20
140.7118158697312
 30
0.0
  0
ENDBLK
  5
7423
330
7421
100
AcDbEntity
  8
0
100
AcDbBlockEnd
  0
BLOCK
  5
742C
330
742B
100
AcDbEntity
  8
0
100
AcDbBlockBegin
  2
*D46
 70
     1
 10
0.0
 20
0.0
 30
0.0
  3
*D46
  1

  0
LINE
  5
742E
330
742B
100
AcDbEntity
  8
标注
  6
Continuous
370
    -2
100
AcDbLine
 10
1087.579939687663
 20
158.7489062725828
 30
0.0
 11
1087.181422970895
 21
159.2624083918156
 31
0.0
  0
MTEXT
  5
742F
330
742B
100
AcDbEntity
  8
标注
100
AcDbMText
 10
1089.235754754161
 20
157.3364955598512
 30
0.0
 40
0.65
 41
0.0
 71
     5
 72
     1
  1
\A1;R3/8"
 11
0.6131026411813383
 21
-0.7900032603581248
 31
0.0
 73
     1
 44
1.0
1001
ACAD
1000
MTEXTBEGIN
1070
    73
1070
     1
1070
    44
1040
1.0
1070
    74
1070
     0
1000
MTEXTEND
  0
LINE
  5
7430
330
742B
100
AcDbEntity
  8
标注
  6
Continuous
370
    -2
100
AcDbLine
 10
1088.219834914264
 20
157.924379869747
 30
0.0
 11
1087.978456404431
 21
158.2354041533501
 31
0.0
  0
SOLID
  5
7431
330
742B
100
AcDbEntity
  8
标注
100
AcDbTrace
 10
1087.665523374202
 20
158.8153257253775
 30
0.0
 11
1087.494356001124
 21
158.6824868197881
 31
0.0
 12
1087.978456404431
 22
158.2354041533501
 32
0.0
 13
1087.978456404431
 23
158.2354041533501
 33
0.0
  0
POINT
  5
7432
330
742B
100
AcDbEntity
  8
DEFPOINTS
 62
     0
100
AcDbPoint
 10
1087.978456404431
 20
158.2354041533501
 30
0.0
  0
POINT
  5
7433
330
742B
100
AcDbEntity
  8
DEFPOINTS
 62
     0
100
AcDbPoint
 10
1088.219834914264
 20
157.924379869747
 30
0.0
  0
ENDBLK
  5
742D
330
742B
100
AcDbEntity
  8
0
100
AcDbBlockEnd
  0
BLOCK
  5
7436
330
7435
100
AcDbEntity
  8
0
100
AcDbBlockBegin
  2
*D47
 70
     1
 10
0.0
 20
0.0
 30
0.0
  3
*D47
  1

  0
LINE
  5
7438
330
7435
100
AcDbEntity
  8
标注
  6
Continuous
370
    -2
100
AcDbLine
 10
1087.378015099274
 20
172.4005196330042
 30
0.0
 11
1086.853742914025
 21
172.0162818475444
 31
0.0
  0
MTEXT
  5
7439
330
7435
100
AcDbEntity
  8
标注
100
AcDbMText
 10
1088.841124194928
 20
173.9282861743122
 30
0.0
 40
0.65
 41
0.0
 71
     5
 72
     1
  1
\A1;R3/8"
 11
0.806572592689587
 21
0.5911350545535238
 31
0.0
 73
     1
 44
1.0
1001
ACAD
1000
MTEXTBEGIN
1070
    73
1070
     1
1070
    44
1040
1.0
1070
    74
1070
     0
1000
MTEXTEND
  0
LINE
  5
743A
330
7435
100
AcDbEntity
  8
标注
  6
Continuous
370
    -2
100
AcDbLine
 10
1088.219834914264
 20
173.0174872894418
 30
0.0
 11
1087.902287284522
 21
172.784757418464
 31
0.0
  0
SOLID
  5
743B
330
7435
100
AcDbEntity
  8
标注
100
AcDbTrace
 10
1087.313975468364
 20
172.4878983305455
 30
0.0
 11
1087.442054730184
 21
172.3131409354628
 31
0.0
 12
1087.902287284522
 22
172.784757418464
 32
0.0
 13
1087.902287284522
 23
172.784757418464
 33
0.0
  0
POINT
  5
743C
330
7435
100
AcDbEntity
  8
DEFPOINTS
 62
     0
100
AcDbPoint
 10
1087.902287284522
 20
172.784757418464
 30
0.0
  0
POINT
  5
743D
330
7435
100
AcDbEntity
  8
DEFPOINTS
 62
     0
100
AcDbPoint
 10
1088.219834914264
 20
173.0174872894418
 30
0.0
  0
ENDBLK
  5
7437
330
7435
100
AcDbEntity
  8
0
100
AcDbBlockEnd
  0
ENDSEC
  0
SECTION
  2
ENTITIES
  0
LINE
  5
7291
330
5F6E
100
AcDbEntity
  8
0
100
AcDbLine
 10
1116.511116914255
 20
139.3181178697313
 30
0.0
 11
1087.641095914245
 21
139.3181178697313
 31
0.0
  0
LINE
  5
7292
330
5F6E
100
AcDbEntity
  8
0
100
AcDbLine
 10
1101.432406914253
 20
140.3181158697451
 30
0.0
 11
1088.219834914264
 21
140.3181158697451
 31
0.0
  0
LINE
  5
7293
330
5F6E
100
AcDbEntity
  8
0
100
AcDbLine
 10
1088.219834914264
 20
158.3180798697329
 30
0.0
 11
1101.432406914253
 21
158.3180798697329
 31
0.0
  0
ARC
  5
7294
330
5F6E
100
AcDbEntity
  8
0
100
AcDbCircle
 10
1088.219834914264
 20
157.924379869747
 30
0.0
 40
0.3937
100
AcDbArc
 50
90.0
 51
180.0
  0
LINE
  5
7295
330
5F6E
100
AcDbEntity
  8
0
100
AcDbLine
 10
1101.94421691425
 20
182.553668824868
 30
0.0
 11
1087.708024914268
 21
182.553668824868
 31
0.0
  0
LINE
  5
7296
330
5F6E
100
AcDbEntity
  8
0
 48
5.0
100
AcDbLine
 10
1087.825642789256
 20
150.2061280623646
 30
0.0
 11
1087.825642789256
 21
150.2061280623646
 31
0.0
  0
REGION
  5
7297
330
5F6E
100
AcDbEntity
  8
0
100
AcDbModelerGeometry
 70
     1
  1
koo nn n o          
  1
ni ^ *+0;:,4 ^ *+0\^ [ nh ^ LR nmqoqnqgmo QK o  
  1
mjqlffffffffffffff fqfffffffffffffffj:rooh n:rono 
  1
=0;& {rn {n {rn {rn |
  1
3*2/ {rn {rn {m {o |
  1
,7:33 {rn {rn {rn {l {rn {n |
  1
9><: {rn {rn {k {m {rn {j 90-(>-; ;0*=3: 0*+ |
  1
300/ {rn {rn {i {l |
  1
/3>1:r,*-9><: {rn nofkqgminmofnkmjgg njlqhfojmfgifhlkof o o o n roqolflhoooooooooooom o o -:):-,:@) V V V V |
  1
<0:;8: {rn {i {i {rn {h -:):-,:; {k {rn |
  1
:;8: {rn {g {g {i {f 90-(>-; |
  1
):-+:' {rn {h {no |
  1
:336/,:r<*-): {rn nofkqgminmofnkmjgg njlqhfojmfgifhlkof o ro ro rn rmqmglkiooooooooool o o n V V |
  1
/061+ {rn nofmqjkmiiofnkmjmg njlqhfojmfgifhlkof o |
  0
CIRCLE
  5
7298
330
5F6E
100
AcDbEntity
  8
细实线
100
AcDbCircle
 10
1094.826120914259
 20
153.7905298697341
 30
0.0
 40
2.16535
  0
CIRCLE
  5
7299
330
5F6E
100
AcDbEntity
  8
0
100
AcDbCircle
 10
1094.826120914259
 20
153.7905298697341
 30
0.0
 40
1.791335
  0
LINE
  5
729A
330
5F6E
100
AcDbEntity
  8
0
 48
5.0
100
AcDbLine
 10
1087.641095914245
 20
159.3180778697468
 30
0.0
 11
1102.011145914243
 21
159.3180778697468
 31
0.0
  0
LINE
  5
729B
330
5F6E
100
AcDbEntity
  8
0
 48
5.0
100
AcDbLine
 10
1086.826136914264
 20
158.5031188697366
 30
0.0
 11
1087.641095914245
 21
159.3180778697468
 31
0.0
  0
LINE
  5
729C
330
5F6E
100
AcDbEntity
  8
0
 48
5.0
100
AcDbLine
 10
1102.865474914266
 20
157.3180818697482
 30
0.0
 11
1116.511116914255
 21
157.3180818697482
 31
0.0
  0
LINE
  5
729D
330
5F6E
100
AcDbEntity
  8
0
100
AcDbLine
 10
1087.826134914249
 20
157.924379869747
 30
0.0
 11
1087.826134914249
 21
140.7118158697311
 31
0.0
  0
ARC
  5
729E
330
5F6E
100
AcDbEntity
  8
0
100
AcDbCircle
 10
1088.219834914264
 20
140.7118158697311
 30
0.0
 40
0.3937
100
AcDbArc
 50
180.0
 51
270.0
  0
LINE
  5
729F
330
5F6E
100
AcDbEntity
  8
0
100
AcDbLine
 10
1101.826106914268
 20
157.924379869747
 30
0.0
 11
1101.826106914268
 21
140.7118158697311
 31
0.0
  0
ARC
  5
72A0
330
5F6E
100
AcDbEntity
  8
0
100
AcDbCircle
 10
1101.432406914253
 20
157.924379869747
 30
0.0
 40
0.3937
100
AcDbArc
 50
0.0
 51
90.0
  0
ARC
  5
72A1
330
5F6E
100
AcDbEntity
  8
0
100
AcDbCircle
 10
1101.432406914253
 20
140.7118158697311
 30
0.0
 40
0.3937
100
AcDbArc
 50
270.0
 51
0.0
  0
LINE
  5
72A2
330
5F6E
100
AcDbEntity
  8
0
100
AcDbLine
 10
1086.826136914264
 20
158.5031188697366
 30
0.0
 11
1086.826136914264
 21
140.1330768697415
 31
0.0
  0
LINE
  5
72A3
330
5F6E
100
AcDbEntity
  8
0
100
AcDbLine
 10
1087.641095914245
 20
139.3181178697313
 30
0.0
 11
1086.826136914264
 21
140.1330768697415
 31
0.0
  0
LINE
  5
72A4
330
5F6E
100
AcDbEntity
  8
0
100
AcDbLine
 10
1103.219804914268
 20
140.3181158697451
 30
0.0
 11
1115.932377914265
 21
140.3181158697451
 31
0.0
  0
LINE
  5
72A5
330
5F6E
100
AcDbEntity
  8
0
100
AcDbLine
 10
1115.932377914265
 20
156.3180838697343
 30
0.0
 11
1103.219804914268
 21
156.3180838697343
 31
0.0
  0
ARC
  5
72A6
330
5F6E
100
AcDbEntity
  8
0
100
AcDbCircle
 10
1103.219804914268
 20
155.9243838697483
 30
0.0
 40
0.3937
100
AcDbArc
 50
90.0
 51
180.0
  0
LINE
  5
72A7
330
5F6E
100
AcDbEntity
  8
0
 48
5.0
100
AcDbLine
 10
1116.326570039244
 20
150.2061280623646
 30
0.0
 11
1116.326570039244
 21
150.2061280623646
 31
0.0
  0
REGION
  5
72A8
330
5F6E
100
AcDbEntity
  8
0
100
AcDbModelerGeometry
 70
     1
  1
koo nn n o          
  1
ni ^ *+0;:,4 ^ *+0\^ [ nh ^ LR nmqoqnqgmo QK o  
  1
mjqlffffffffffffff fqfffffffffffffffj:rooh n:rono 
  1
=0;& {rn {n {rn {rn |
  1
3*2/ {rn {rn {m {o |
  1
,7:33 {rn {rn {rn {l {rn {n |
  1
9><: {rn {rn {k {m {rn {j 90-(>-; ;0*=3: 0*+ |
  1
300/ {rn {rn {i {l |
  1
/3>1:r,*-9><: {rn nnofqjhiofnknkmih njnqhfojllgifhljkk o o o n oqolflhoooooooooooom o o 90-(>-;@) V V V V |
  1
<0:;8: {rn {i {i {rn {h 90-(>-; {k {rn |
  1
:;8: {rn {g {g {i {f 90-(>-; |
  1
):-+:' {rn {h {no |
  1
:336/,:r<*-): {rn nnofqjhiofnknkmih njnqhfojllgifhljkk o o o n mqmglkiooooooooool o o n V V |
  1
/061+ {rn nnnnqgjfjjnknkmklf njnqhfojllgifhljkk o |
  0
CIRCLE
  5
72A9
330
5F6E
100
AcDbEntity
  8
细实线
100
AcDbCircle
 10
1109.576091414267
 20
151.7905338697354
 30
0.0
 40
2.16535
  0
CIRCLE
  5
72AA
330
5F6E
100
AcDbEntity
  8
0
100
AcDbCircle
 10
1109.576091414267
 20
151.7905338697354
 30
0.0
 40
1.791335
  0
LINE
  5
72AB
330
5F6E
100
AcDbEntity
  8
0
100
AcDbLine
 10
1116.326077914251
 20
155.9243838697483
 30
0.0
 11
1116.326077914251
 21
140.7118158697311
 31
0.0
  0
ARC
  5
72AC
330
5F6E
100
AcDbEntity
  8
0
100
AcDbCircle
 10
1115.932377914265
 20
155.9243838697483
 30
0.0
 40
0.3937
100
AcDbArc
 50
0.0
 51
90.0
  0
ARC
  5
72AD
330
5F6E
100
AcDbEntity
  8
0
100
AcDbCircle
 10
1115.932377914265
 20
140.7118158697311
 30
0.0
 40
0.3937
100
AcDbArc
 50
270.0
 51
0.0
  0
LINE
  5
72AE
330
5F6E
100
AcDbEntity
  8
0
100
AcDbLine
 10
1102.826104914253
 20
155.9243838697483
 30
0.0
 11
1102.826104914253
 21
140.7118158697311
 31
0.0
  0
ARC
  5
72AF
330
5F6E
100
AcDbEntity
  8
0
100
AcDbCircle
 10
1103.219804914268
 20
140.7118158697311
 30
0.0
 40
0.3937
100
AcDbArc
 50
180.0
 51
270.0
  0
LINE
  5
72B0
330
5F6E
100
AcDbEntity
  8
0
100
AcDbLine
 10
1117.326075914265
 20
156.5031228697379
 30
0.0
 11
1117.326075914265
 21
140.1330768697415
 31
0.0
  0
LINE
  5
72B1
330
5F6E
100
AcDbEntity
  8
0
100
AcDbLine
 10
1116.511116914255
 20
157.3180818697482
 30
0.0
 11
1117.326075914265
 21
156.5031228697379
 31
0.0
  0
LINE
  5
72B2
330
5F6E
100
AcDbEntity
  8
0
100
AcDbLine
 10
1116.511116914255
 20
139.3181178697313
 30
0.0
 11
1117.326075914265
 21
140.1330768697415
 31
0.0
  0
LINE
  5
72B3
330
5F6E
100
AcDbEntity
  8
0
100
AcDbLine
 10
1101.825614789246
 20
182.553668824868
 30
0.0
 11
1101.826106914268
 21
182.553668824868
 31
0.0
  0
LINE
  5
72B4
330
5F6E
100
AcDbEntity
  8
0
100
AcDbLine
 10
1086.826136914264
 20
182.553668824868
 30
0.0
 11
1087.708024914268
 21
182.553668824868
 31
0.0
  0
LINE
  5
72B5
330
5F6E
100
AcDbEntity
  8
虚线
 48
5.0
100
AcDbLine
 10
1087.826134914249
 20
182.4355588248868
 30
0.0
 11
1087.826134914249
 21
173.0174872894417
 31
0.0
  0
LINE
  5
72B6
330
5F6E
100
AcDbEntity
  8
虚线
 48
5.0
100
AcDbLine
 10
1101.826106914268
 20
173.0174872894417
 30
0.0
 11
1101.826106914268
 21
182.4355588248868
 31
0.0
  0
ARC
  5
72B7
330
5F6E
100
AcDbEntity
  8
虚线
 48
5.0
100
AcDbCircle
 10
1101.432406914253
 20
173.0174872894417
 30
0.0
 40
0.3937
100
AcDbArc
 50
271.734396525314
 51
0.0
  0
LINE
  5
72B8
330
5F6E
100
AcDbEntity
  8
0
100
AcDbLine
 10
1101.94421691425
 20
182.553668824868
 30
0.0
 11
1102.707994914243
 21
182.553668824868
 31
0.0
  0
LINE
  5
72B9
330
5F6E
100
AcDbEntity
  8
虚线
 48
5.0
100
AcDbLine
 10
1097.182576386731
 20
172.4949212258793
 30
0.0
 11
1092.469664919867
 21
172.4949212258793
 31
0.0
  0
LINE
  5
72BA
330
5F6E
100
AcDbEntity
  8
中心线
 48
2.0
100
AcDbLine
 10
1094.826120653314
 20
170.8233479483456
 30
0.0
 11
1094.826120653314
 21
174.1664945034131
 31
0.0
  0
ARC
  5
72BB
330
5F6E
100
AcDbEntity
  8
虚线
 48
5.0
100
AcDbCircle
 10
1092.469664919867
 20
172.376811225869
 30
0.0
 40
0.11811
100
AcDbArc
 50
26.5650510823682
 51
90.0
  0
ARC
  5
72BC
330
5F6E
100
AcDbEntity
  8
虚线
 48
5.0
100
AcDbCircle
 10
1097.18257690865
 20
172.376811225869
 30
0.0
 40
0.11811
100
AcDbArc
 50
90.0
 51
153.4349486715374
  0
ARC
  5
72BD
330
5F6E
100
AcDbEntity
  8
虚线
 48
5.0
100
AcDbCircle
 10
1092.69726891147
 20
172.3177562258784
 30
0.0
 40
0.059055
100
AcDbArc
 50
206.5650516506218
 51
269.9999999583118
  0
ARC
  5
72BE
330
5F6E
100
AcDbEntity
  8
虚线
 48
5.0
100
AcDbCircle
 10
1096.954972917047
 20
172.3177562258784
 30
0.0
 40
0.059055
100
AcDbArc
 50
270.0000000416882
 51
333.4349477811253
  0
LINE
  5
72BF
330
5F6E
100
AcDbEntity
  8
虚线
 48
5.0
100
AcDbLine
 10
1097.007793314821
 20
172.2913460270206
 30
0.0
 11
1097.076936113132
 21
172.4296316236427
 31
0.0
  0
LINE
  5
72C0
330
5F6E
100
AcDbEntity
  8
虚线
 48
5.0
100
AcDbLine
 10
1092.69726891147
 20
172.2587012258877
 30
0.0
 11
1093.054470914249
 21
172.2587012258877
 31
0.0
  0
LINE
  5
72C1
330
5F6E
100
AcDbEntity
  8
虚线
 48
5.0
100
AcDbLine
 10
1096.597770914268
 20
172.199646225868
 30
0.0
 11
1096.597770914268
 21
172.2587012258877
 31
0.0
  0
LINE
  5
72C2
330
5F6E
100
AcDbEntity
  8
虚线
 48
5.0
100
AcDbLine
 10
1092.644448513697
 20
172.2913460270206
 30
0.0
 11
1092.575305715385
 21
172.4296316236427
 31
0.0
  0
LINE
  5
72C3
330
5F6E
100
AcDbEntity
  8
虚线
 48
5.0
100
AcDbLine
 10
1093.054470914249
 20
172.199646225868
 30
0.0
 11
1093.054470914249
 21
172.2587012258877
 31
0.0
  0
LINE
  5
72C4
330
5F6E
100
AcDbEntity
  8
虚线
 48
5.0
100
AcDbLine
 10
1096.597770914268
 20
172.2587012258877
 30
0.0
 11
1096.954972917047
 21
172.2587012258877
 31
0.0
  0
LINE
  5
72C5
330
5F6E
100
AcDbEntity
  8
虚线
 48
5.0
100
AcDbLine
 10
1093.054470914249
 20
172.2587012258877
 30
0.0
 11
1096.597770914268
 21
172.2587012258877
 31
0.0
  0
LINE
  5
72C6
330
5F6E
100
AcDbEntity
  8
0
100
AcDbLine
 10
1092.591628115952
 20
172.2649358281337
 30
0.0
 11
1092.522485317612
 21
172.403221424785
 31
0.0
  0
ARC
  5
72C7
330
5F6E
100
AcDbEntity
  8
0
100
AcDbCircle
 10
1092.469664919867
 20
172.376811225869
 30
0.0
 40
0.059055
100
AcDbArc
 50
26.5650510823682
 51
90.0
  0
ARC
  5
72C8
330
5F6E
100
AcDbEntity
  8
0
100
AcDbCircle
 10
1092.69726891147
 20
172.3177562258784
 30
0.0
 40
0.11811
100
AcDbArc
 50
206.5650516506218
 51
269.9999999583118
  0
LINE
  5
72C9
330
5F6E
100
AcDbEntity
  8
0
100
AcDbLine
 10
1092.69726891147
 20
172.199646225868
 30
0.0
 11
1093.054470914249
 21
172.199646225868
 31
0.0
  0
LINE
  5
72CA
330
5F6E
100
AcDbEntity
  8
0
100
AcDbLine
 10
1093.054470914249
 20
172.199646225868
 30
0.0
 11
1096.597770914268
 21
172.199646225868
 31
0.0
  0
LINE
  5
72CB
330
5F6E
100
AcDbEntity
  8
0
100
AcDbLine
 10
1096.597770914268
 20
172.199646225868
 30
0.0
 11
1096.954972917047
 21
172.199646225868
 31
0.0
  0
ARC
  5
72CC
330
5F6E
100
AcDbEntity
  8
0
100
AcDbCircle
 10
1096.954972917047
 20
172.3177562258784
 30
0.0
 40
0.11811
100
AcDbArc
 50
270.0000000416882
 51
333.4349477811253
  0
LINE
  5
72CD
330
5F6E
100
AcDbEntity
  8
0
100
AcDbLine
 10
1097.060613712565
 20
172.2649358281337
 30
0.0
 11
1097.129756510906
 21
172.403221424785
 31
0.0
  0
ARC
  5
72CE
330
5F6E
100
AcDbEntity
  8
0
100
AcDbCircle
 10
1097.18257690865
 20
172.376811225869
 30
0.0
 40
0.059055
100
AcDbArc
 50
90.0
 51
153.4349486715374
  0
LINE
  5
72CF
330
5F6E
100
AcDbEntity
  8
0
100
AcDbLine
 10
1101.885161914259
 20
173.0166904322973
 30
0.0
 11
1101.885161914259
 21
182.4355588248868
 31
0.0
  0
ARC
  5
72D0
330
5F6E
100
AcDbEntity
  8
0
100
AcDbCircle
 10
1101.432406914253
 20
173.0166904322973
 30
0.0
 40
0.452755
100
AcDbArc
 50
271.7233341386688
 51
0.0
  0
LINE
  5
72D1
330
5F6E
100
AcDbEntity
  8
0
100
AcDbLine
 10
1101.94421691425
 20
182.4946138248774
 30
0.0
 11
1102.707994914243
 21
182.4946138248774
 31
0.0
  0
LINE
  5
72D2
330
5F6E
100
AcDbEntity
  8
0
100
AcDbLine
 10
1086.826136914264
 20
182.4946138248774
 30
0.0
 11
1087.708024914268
 21
182.4946138248774
 31
0.0
  0
LINE
  5
72D3
330
5F6E
100
AcDbEntity
  8
0
100
AcDbLine
 10
1087.767079914258
 20
182.4355588248868
 30
0.0
 11
1087.767079914258
 21
173.0166904322973
 31
0.0
  0
LINE
  5
72D4
330
5F6E
100
AcDbEntity
  8
0
100
AcDbLine
 10
1086.826136914264
 20
182.553668824868
 30
0.0
 11
1086.826136914264
 21
182.4946138248774
 31
0.0
  0
ARC
  5
72D5
330
5F6E
100
AcDbEntity
  8
虚线
 48
5.0
100
AcDbCircle
 10
1087.708024914268
 20
182.4355588248868
 30
0.0
 40
0.11811
100
AcDbArc
 50
0.0
 51
90.0
  0
ARC
  5
72D6
330
5F6E
100
AcDbEntity
  8
虚线
 48
5.0
100
AcDbCircle
 10
1101.94421691425
 20
182.4355588248868
 30
0.0
 40
0.11811
100
AcDbArc
 50
90.0
 51
180.0
  0
ARC
  5
72D7
330
5F6E
100
AcDbEntity
  8
0
100
AcDbCircle
 10
1101.94421691425
 20
182.4355588248868
 30
0.0
 40
0.059055
100
AcDbArc
 50
90.0
 51
180.0
  0
ARC
  5
72D8
330
5F6E
100
AcDbEntity
  8
0
100
AcDbCircle
 10
1087.708024914268
 20
182.4355588248868
 30
0.0
 40
0.059055
100
AcDbArc
 50
0.0
 51
90.0
  0
LINE
  5
72D9
330
5F6E
100
AcDbEntity
  8
虚线
 48
5.0
100
AcDbLine
 10
1101.44432275941
 20
172.6239676550899
 30
0.0
 11
1097.18257690865
 21
172.4949212258793
 31
0.0
  0
LINE
  5
72DA
330
5F6E
100
AcDbEntity
  8
0
100
AcDbLine
 10
1101.446022760189
 20
172.5641402154574
 30
0.0
 11
1097.18257690865
 21
172.4358662258887
 31
0.0
  0
LINE
  5
72DB
330
5F6E
100
AcDbEntity
  8
虚线
 48
5.0
100
AcDbLine
 10
1102.826104914253
 20
182.4355588248868
 30
0.0
 11
1102.826104914253
 21
175.0182765518252
 31
0.0
  0
LINE
  5
72DC
330
5F6E
100
AcDbEntity
  8
0
100
AcDbLine
 10
1102.767049914262
 20
182.4355588248868
 30
0.0
 11
1102.767049914262
 21
175.017474303982
 31
0.0
  0
ARC
  5
72DD
330
5F6E
100
AcDbEntity
  8
虚线
 48
5.0
100
AcDbCircle
 10
1102.707994914243
 20
182.4355588248868
 30
0.0
 40
0.11811
100
AcDbArc
 50
0.0
 51
90.0
  0
ARC
  5
72DE
330
5F6E
100
AcDbEntity
  8
0
100
AcDbCircle
 10
1102.707994914243
 20
182.4355588248868
 30
0.0
 40
0.059055
100
AcDbArc
 50
0.0
 51
90.0
  0
LINE
  5
72DF
330
5F6E
100
AcDbEntity
  8
0
100
AcDbLine
 10
1102.707994914243
 20
182.553668824868
 30
0.0
 11
1116.444187914262
 21
182.553668824868
 31
0.0
  0
LINE
  5
72E0
330
5F6E
100
AcDbEntity
  8
0
100
AcDbLine
 10
1117.326075914265
 20
182.553668824868
 30
0.0
 11
1116.444187914262
 21
182.553668824868
 31
0.0
  0
LINE
  5
72E1
330
5F6E
100
AcDbEntity
  8
虚线
 48
5.0
100
AcDbLine
 10
1116.326077914251
 20
182.4355588248868
 30
0.0
 11
1116.326077914251
 21
175.0182765518252
 31
0.0
  0
ARC
  5
72E2
330
5F6E
100
AcDbEntity
  8
虚线
 48
5.0
100
AcDbCircle
 10
1115.932377914265
 20
175.0182765518252
 30
0.0
 40
0.3937
100
AcDbArc
 50
271.8537118205612
 51
0.0
  0
LINE
  5
72E3
330
5F6E
100
AcDbEntity
  8
虚线
 48
5.0
100
AcDbLine
 10
1115.945113215748
 20
174.6247825847818
 30
0.0
 11
1111.932547408629
 21
174.494917225878
 31
0.0
  0
LINE
  5
72E4
330
5F6E
100
AcDbEntity
  8
虚线
 48
5.0
100
AcDbLine
 10
1111.932547408629
 20
174.494917225878
 30
0.0
 11
1107.219635419846
 21
174.494917225878
 31
0.0
  0
LINE
  5
72E5
330
5F6E
100
AcDbEntity
  8
中心线
 48
2.0
100
AcDbLine
 10
1109.576091414267
 20
172.8233439483442
 30
0.0
 11
1109.576091414267
 21
176.1664905034117
 31
0.0
  0
ARC
  5
72E6
330
5F6E
100
AcDbEntity
  8
虚线
 48
5.0
100
AcDbCircle
 10
1111.932547408658
 20
174.3768072258676
 30
0.0
 40
0.11811
100
AcDbArc
 50
90.0
 51
153.4349489176318
  0
ARC
  5
72E7
330
5F6E
100
AcDbEntity
  8
虚线
 48
5.0
100
AcDbCircle
 10
1107.219635419846
 20
174.3768072258676
 30
0.0
 40
0.11811
100
AcDbArc
 50
26.56505132846259
 51
90.0
  0
ARC
  5
72E8
330
5F6E
100
AcDbEntity
  8
虚线
 48
5.0
100
AcDbCircle
 10
1111.704943417055
 20
174.317752225877
 30
0.0
 40
0.059055
100
AcDbArc
 50
270.0000000416882
 51
333.4349483493782
  0
ARC
  5
72E9
330
5F6E
100
AcDbEntity
  8
虚线
 48
5.0
100
AcDbCircle
 10
1107.447239411449
 20
174.317752225877
 30
0.0
 40
0.059055
100
AcDbArc
 50
206.5650522188747
 51
269.9999999583118
  0
LINE
  5
72EA
330
5F6E
100
AcDbEntity
  8
虚线
 48
5.0
100
AcDbLine
 10
1107.394419013705
 20
174.2913420270192
 30
0.0
 11
1107.325276215394
 21
174.4296276236705
 31
0.0
  0
LINE
  5
72EB
330
5F6E
100
AcDbEntity
  8
虚线
 48
5.0
100
AcDbLine
 10
1111.704943417055
 20
174.2586972258864
 30
0.0
 11
1111.347741414247
 21
174.2586972258864
 31
0.0
  0
LINE
  5
72EC
330
5F6E
100
AcDbEntity
  8
虚线
 48
5.0
100
AcDbLine
 10
1107.804441414257
 20
174.1996422258667
 30
0.0
 11
1107.804441414257
 21
174.2586972258864
 31
0.0
  0
LINE
  5
72ED
330
5F6E
100
AcDbEntity
  8
虚线
 48
5.0
100
AcDbLine
 10
1111.7577638148
 20
174.2913420270192
 30
0.0
 11
1111.82690661314
 21
174.4296276236705
 31
0.0
  0
LINE
  5
72EE
330
5F6E
100
AcDbEntity
  8
虚线
 48
5.0
100
AcDbLine
 10
1111.347741414247
 20
174.1996422258667
 30
0.0
 11
1111.347741414247
 21
174.2586972258864
 31
0.0
  0
LINE
  5
72EF
330
5F6E
100
AcDbEntity
  8
虚线
 48
5.0
100
AcDbLine
 10
1107.804441414257
 20
174.2586972258864
 30
0.0
 11
1107.447239411449
 21
174.2586972258864
 31
0.0
  0
LINE
  5
72F0
330
5F6E
100
AcDbEntity
  8
虚线
 48
5.0
100
AcDbLine
 10
1111.347741414247
 20
174.2586972258864
 30
0.0
 11
1107.804441414257
 21
174.2586972258864
 31
0.0
  0
LINE
  5
72F1
330
5F6E
100
AcDbEntity
  8
0
100
AcDbLine
 10
1111.810584212574
 20
174.2649318281324
 30
0.0
 11
1111.879727010885
 21
174.4032174247836
 31
0.0
  0
ARC
  5
72F2
330
5F6E
100
AcDbEntity
  8
0
100
AcDbCircle
 10
1111.932547408658
 20
174.3768072258676
 30
0.0
 40
0.059055
100
AcDbArc
 50
90.0
 51
153.4349489176318
  0
LINE
  5
72F3
330
5F6E
100
AcDbEntity
  8
0
100
AcDbLine
 10
1115.946929691076
 20
174.5649532151578
 30
0.0
 11
1111.932547408629
 21
174.4358622258874
 31
0.0
  0
ARC
  5
72F4
330
5F6E
100
AcDbEntity
  8
0
100
AcDbCircle
 10
1111.704943417055
 20
174.317752225877
 30
0.0
 40
0.11811
100
AcDbArc
 50
270.0000000416882
 51
333.4349483493782
  0
LINE
  5
72F5
330
5F6E
100
AcDbEntity
  8
0
100
AcDbLine
 10
1111.704943417055
 20
174.1996422258667
 30
0.0
 11
1111.347741414247
 21
174.1996422258667
 31
0.0
  0
LINE
  5
72F6
330
5F6E
100
AcDbEntity
  8
0
100
AcDbLine
 10
1111.347741414247
 20
174.1996422258667
 30
0.0
 11
1107.804441414257
 21
174.1996422258667
 31
0.0
  0
LINE
  5
72F7
330
5F6E
100
AcDbEntity
  8
0
100
AcDbLine
 10
1107.804441414257
 20
174.1996422258667
 30
0.0
 11
1107.447239411449
 21
174.1996422258667
 31
0.0
  0
ARC
  5
72F8
330
5F6E
100
AcDbEntity
  8
0
100
AcDbCircle
 10
1107.447239411449
 20
174.317752225877
 30
0.0
 40
0.11811
100
AcDbArc
 50
206.5650522188747
 51
269.9999999583118
  0
LINE
  5
72F9
330
5F6E
100
AcDbEntity
  8
0
100
AcDbLine
 10
1107.341598615931
 20
174.2649318281324
 30
0.0
 11
1107.27245581762
 21
174.4032174247836
 31
0.0
  0
ARC
  5
72FA
330
5F6E
100
AcDbEntity
  8
0
100
AcDbCircle
 10
1107.219635419846
 20
174.3768072258676
 30
0.0
 40
0.059055
100
AcDbArc
 50
26.56505132846259
 51
90.0
  0
LINE
  5
72FB
330
5F6E
100
AcDbEntity
  8
0
100
AcDbLine
 10
1117.326075914265
 20
182.4946138248774
 30
0.0
 11
1116.444187914262
 21
182.4946138248774
 31
0.0
  0
LINE
  5
72FC
330
5F6E
100
AcDbEntity
  8
0
100
AcDbLine
 10
1116.385132914271
 20
182.4355588248868
 30
0.0
 11
1116.385132914271
 21
175.0174743039529
 31
0.0
  0
ARC
  5
72FD
330
5F6E
100
AcDbEntity
  8
0
100
AcDbCircle
 10
1115.932377914265
 20
175.0174743039529
 30
0.0
 40
0.452755
100
AcDbArc
 50
271.8418327855669
 51
0.0
  0
LINE
  5
72FE
330
5F6E
100
AcDbEntity
  8
0
100
AcDbLine
 10
1117.326075914265
 20
182.553668824868
 30
0.0
 11
1117.326075914265
 21
182.4946138248774
 31
0.0
  0
ARC
  5
72FF
330
5F6E
100
AcDbEntity
  8
虚线
 48
5.0
100
AcDbCircle
 10
1116.444187914262
 20
182.4355588248868
 30
0.0
 40
0.11811
100
AcDbArc
 50
90.0
 51
180.0
  0
ARC
  5
7300
330
5F6E
100
AcDbEntity
  8
0
100
AcDbCircle
 10
1116.444187914262
 20
182.4355588248868
 30
0.0
 40
0.059055
100
AcDbArc
 50
90.0
 51
180.0
  0
LINE
  5
7301
330
5F6E
100
AcDbEntity
  8
虚线
 48
5.0
100
AcDbLine
 10
1103.207069612785
 20
174.6247825847818
 30
0.0
 11
1107.219635419875
 21
174.494917225878
 31
0.0
  0
ARC
  5
7302
330
5F6E
100
AcDbEntity
  8
虚线
 48
5.0
100
AcDbCircle
 10
1103.219804914239
 20
175.0182765518252
 30
0.0
 40
0.3937
100
AcDbArc
 50
180.0
 51
268.1462881794388
  0
LINE
  5
7303
330
5F6E
100
AcDbEntity
  8
0
100
AcDbLine
 10
1103.205253137429
 20
174.5649532151578
 30
0.0
 11
1107.219635419875
 21
174.4358622258874
 31
0.0
  0
ARC
  5
7304
330
5F6E
100
AcDbEntity
  8
0
100
AcDbCircle
 10
1103.219804914239
 20
175.017474303982
 30
0.0
 40
0.452755
100
AcDbArc
 50
180.0
 51
268.158167214433
  0
LINE
  5
7305
330
5F6E
100
AcDbEntity
  8
0
 48
5.0
100
AcDbLine
 10
1102.826104914253
 20
157.3574518697322
 30
0.0
 11
1102.826104914253
 21
158.5031188697366
 31
0.0
  0
LINE
  5
7306
330
5F6E
100
AcDbEntity
  8
0
 48
5.0
100
AcDbLine
 10
1102.011145914243
 20
159.3180778697468
 30
0.0
 11
1102.826104914253
 21
158.5031188697366
 31
0.0
  0
ARC
  5
7307
330
5F6E
100
AcDbEntity
  8
0
 48
5.0
100
AcDbCircle
 10
1102.865474914266
 20
157.3574518697322
 30
0.0
 40
0.03937
100
AcDbArc
 50
180.0
 51
270.0
  0
LINE
  5
7308
330
5F6E
100
AcDbEntity
  8
虚线
 48
5.0
100
AcDbLine
 10
1088.207919069108
 20
172.6239676550899
 30
0.0
 11
1092.469664919867
 21
172.4949212258793
 31
0.0
  0
ARC
  5
7309
330
5F6E
100
AcDbEntity
  8
虚线
 48
5.0
100
AcDbCircle
 10
1088.219834914264
 20
173.0174872894417
 30
0.0
 40
0.3937
100
AcDbArc
 50
180.0
 51
268.265603474686
  0
LINE
  5
730A
330
5F6E
100
AcDbEntity
  8
0
100
AcDbLine
 10
1088.206219068329
 20
172.5641402154574
 30
0.0
 11
1092.469664919867
 21
172.4358662258887
 31
0.0
  0
ARC
  5
730B
330
5F6E
100
AcDbEntity
  8
0
100
AcDbCircle
 10
1088.219834914264
 20
173.0166904322973
 30
0.0
 40
0.452755
100
AcDbArc
 50
180.0
 51
268.2766658613313
  0
LINE
  5
730C
330
5F6E
100
AcDbEntity
  8
0
100
AcDbLine
 10
1102.707994914243
 20
182.4946138248774
 30
0.0
 11
1116.444187914262
 21
182.4946138248774
 31
0.0
  0
LINE
  5
730D
330
5F6E
100
AcDbEntity
  8
0
100
AcDbLine
 10
1087.708024914268
 20
182.4946138248774
 30
0.0
 11
1101.94421691425
 21
182.4946138248774
 31
0.0
  0
LINE
  5
730E
330
5F6E
100
AcDbEntity
  8
0
100
AcDbLine
 10
1107.219635419875
 20
174.4358622258874
 30
0.0
 11
1111.932547408658
 21
174.4358622258874
 31
0.0
  0
LINE
  5
730F
330
5F6E
100
AcDbEntity
  8
0
100
AcDbLine
 10
1092.469664919867
 20
172.4358662258887
 30
0.0
 11
1097.18257690865
 21
172.4358662258887
 31
0.0
  0
LINE
  5
7310
330
5F6E
100
AcDbEntity
  8
细实线
100
AcDbLine
 10
1103.416654914247
 20
155.7275338697408
 30
0.0
 11
1107.652083983507
 21
153.0203244934135
 31
0.0
  0
LINE
  5
7311
330
5F6E
100
AcDbEntity
  8
细实线
100
AcDbLine
 10
1111.500098844998
 20
153.0203244934135
 30
0.0
 11
1115.735527914258
 21
155.7275338697408
 31
0.0
  0
LINE
  5
7312
330
5F6E
100
AcDbEntity
  8
细实线
100
AcDbLine
 10
1103.416654914247
 20
140.9086658697387
 30
0.0
 11
1108.451278493631
 21
149.8033284286256
 31
0.0
  0
LINE
  5
7313
330
5F6E
100
AcDbEntity
  8
细实线
100
AcDbLine
 10
1110.700904334874
 20
149.8033284286256
 30
0.0
 11
1115.735527914258
 21
140.9086658697387
 31
0.0
  0
LINE
  5
7314
330
5F6E
100
AcDbEntity
  8
0
100
AcDbLine
 10
1101.235556914246
 20
140.9086658697387
 30
0.0
 11
1095.843314518228
 21
151.7461456730715
 31
0.0
  0
LINE
  5
7315
330
5F6E
100
AcDbEntity
  8
0
100
AcDbLine
 10
1096.771832804145
 20
154.9856845932708
 30
0.0
 11
1101.235556914246
 21
157.7275298697394
 31
0.0
  0
LINE
  5
7316
330
5F6E
100
AcDbEntity
  8
0
100
AcDbLine
 10
1088.416684914242
 20
157.7275298697394
 30
0.0
 11
1092.880409024372
 21
154.9856845932708
 31
0.0
  0
LINE
  5
7317
330
5F6E
100
AcDbEntity
  8
0
100
AcDbLine
 10
1093.808927310289
 20
151.7461456730715
 30
0.0
 11
1088.416684914242
 21
140.9086658697387
 31
0.0
  0
LWPOLYLINE
  5
7318
330
5F6E
100
AcDbEntity
  8
中心线
  6
Continuous
 62
     1
100
AcDbPolyline
 90
       12
 70
     1
 43
0.0
 10
1117.24190498054
 20
105.0931941446001
 42
0.4142135623730951
 10
1117.714344980523
 20
105.5656341446124
 10
1117.714344980523
 20
120.7782021446005
 42
0.4142135623730951
 10
1117.24190498054
 20
121.2506421446128
 10
1103.608073980526
 20
121.2506421446128
 42
-0.4142135623730951
 10
1103.21437398054
 20
121.6443421445988
 10
1103.21437398054
 20
122.7781981445992
 42
0.4142135623730951
 10
1102.741933980528
 20
123.2506381446114
 10
1089.529361980538
 20
123.2506381446114
 42
0.4142135623730951
 10
1089.056921980526
 20
122.7781981445992
 10
1089.056921980526
 20
105.5656341446124
 42
0.4142135623730951
 10
1089.529361980538
 20
105.0931941446001
1001
GENIUS_GENODEF_13
1002
{
1000
HIER
1070
     0
1002
}
1002
{
1000
MANEDIT
1070
     0
1002
}
1002
{
1000
NOSEL
1070
     0
1002
}
1002
{
1000
BEHIND
1070
     0
1002
}
1002
{
1000
OTHER
1070
     0
1002
}
1002
{
1000
REACTOR
1002
}
1001
GENIUS_GENOBJ-N-FIL_13
1002
{
1000
OWNER
1000
GEN
1002
}
  0
TEXT
  5
7319
330
5F6E
100
AcDbEntity
  8
标注
100
AcDbText
 10
1099.731000639688
 20
167.370104414766
 30
0.0
 40
0.7874015748031497
  1
FRONT VIEW
100
AcDbText
  0
TEXT
  5
731A
330
5F6E
100
AcDbEntity
  8
标注
100
AcDbText
 10
1097.428311146371
 20
132.0092237886324
 30
0.0
 40
0.7874015748031497
  1
OVERHEAD VIEW
100
AcDbText
  0
TEXT
  5
731B
330
5F6E
100
AcDbEntity
  8
标注
100
AcDbText
 10
1103.741757108257
 20
98.88715381610339
 30
0.0
 40
0.7874015748031497
  1
 CUTOUT
100
AcDbText
  0
LINE
  5
731C
330
5F6E
100
AcDbEntity
  8
中心线
  6
Continuous
 62
     1
100
AcDbLine
 10
1096.07635102769
 20
99.1403552834082
 30
0.0
 11
1102.293156031774
 21
99.1403552834082
 31
0.0
  0
DIMENSION
  5
731D
330
5F6E
100
AcDbEntity
  8
标注
100
AcDbDimension
  2
*D30
 10
1117.714344980523
 20
102.7117688782459
 30
0.0
 11
1103.385633480524
 21
102.7117688782459
 31
0.0
 70
    32
 71
     5
 42
28.65742299999693
  3
副本STANDARD
100
AcDbAlignedDimension
 13
1089.056921980526
 23
105.5656341446124
 33
0.0
 14
1117.714344980523
 24
105.5656341446124
 34
0.0
100
AcDbRotatedDimension
1001
ACAD
1000
DSTYLE
1002
{
1070
   345
1005
5F5E
1070
   346
1005
5F5E
1070
   347
1005
5F5E
1002
}
  0
DIMENSION
  5
732B
330
5F6E
100
AcDbEntity
  8
标注
100
AcDbDimension
  2
*D31
 10
1119.818259186144
 20
121.2506421446128
 30
0.0
 11
1119.818259186144
 21
113.1719181446066
 31
0.0
 70
    32
 71
     5
 42
16.15744800001266
  3
副本STANDARD
100
AcDbAlignedDimension
 13
1117.24190498054
 23
105.0931941446001
 33
0.0
 14
1117.241904980525
 24
121.2506421446128
 34
0.0
 50
90.0
100
AcDbRotatedDimension
1001
ACAD
1000
DSTYLE
1002
{
1070
   345
1005
5F5E
1070
   346
1005
5F5E
1070
   347
1005
5F5E
1002
}
  0
DIMENSION
  5
7339
330
5F6E
100
AcDbEntity
  8
标注
100
AcDbDimension
  2
*D32
 10
1086.210576979412
 20
123.2506381446114
 30
0.0
 11
1086.210576979412
 21
114.171916144606
 31
0.0
 70
    32
 71
     5
 42
18.15744400001131
  3
副本STANDARD
100
AcDbAlignedDimension
 13
1089.529361980538
 23
105.0931941446001
 33
0.0
 14
1089.529361980538
 24
123.2506381446114
 34
0.0
 50
90.0
100
AcDbRotatedDimension
1001
ACAD
1000
DSTYLE
1002
{
1070
   345
1005
5F5E
1070
   346
1005
5F5E
1070
   347
1005
5F5E
1002
}
  0
DIMENSION
  5
7347
330
5F6E
100
AcDbEntity
  8
标注
100
AcDbDimension
  2
*D33
 10
1103.21437398054
 20
125.3063981111345
 30
0.0
 11
1096.135647980533
 21
125.3063981111345
 31
0.0
 70
    32
 71
     5
 42
14.15745200001402
  3
副本STANDARD
100
AcDbAlignedDimension
 13
1089.056921980526
 23
122.7781981445992
 33
0.0
 14
1103.21437398054
 24
122.7781981445992
 34
0.0
100
AcDbRotatedDimension
1001
ACAD
1000
DSTYLE
1002
{
1070
   345
1005
5F5E
1070
   346
1005
5F5E
1070
   347
1005
5F5E
1002
}
  0
DIMENSION
  5
735F
330
5F6E
100
AcDbEntity
  8
标注
100
AcDbDimension
  2
*D34
 10
1089.529361980538
 20
105.5656341446125
 30
0.0
 11
1090.252077046784
 21
106.6012742698748
 31
0.0
 70
   164
  1
5-<>
 71
     5
 42
0.4724400000123979
  3
副本STANDARD
100
AcDbRadialDimension
 15
1089.138364530407
 25
105.3004539273969
 35
0.0
 40
0.0
1001
ACAD
1000
DSTYLE
1002
{
1070
   288
1070
     1
1070
   345
1005
5F5E
1070
   346
1005
5F5E
1070
   347
1005
5F5E
1002
}
1001
ACAD_DSTYLE_DIMRADIAL_EXTENSION
1070
   387
1070
     1
1070
   388
1040
3.141592653589793
1070
   390
1040
4.712388980384689
  0
DIMENSION
  5
7369
330
5F6E
100
AcDbEntity
  8
标注
100
AcDbDimension
  2
*D35
 10
1103.608073980526
 20
121.6443421445988
 30
0.0
 11
1101.959465458571
 21
120.9669595160036
 31
0.0
 70
   164
 71
     5
 42
0.3936999999859836
  3
副本STANDARD
100
AcDbRadialDimension
 15
1103.331836455312
 25
121.3638202744124
 35
0.0
 40
0.0
1001
ACAD
1000
DSTYLE
1002
{
1070
   288
1070
     1
1070
   345
1005
5F5E
1070
   346
1005
5F5E
1070
   347
1005
5F5E
1002
}
1001
ACAD_DSTYLE_DIMRADIAL_EXTENSION
1070
   387
1070
     1
1070
   388
1040
3.141592653589793
1070
   390
1040
4.712388980384689
  0
DIMENSION
  5
7384
330
5F6E
100
AcDbEntity
  8
标注
100
AcDbDimension
  2
*D36
 10
1101.826106914253
 20
137.6765026903683
 30
0.0
 11
1094.826120914259
 21
137.6765026903683
 31
0.0
 70
    32
 71
     5
 42
13.99997199998961
  3
副本STANDARD
100
AcDbAlignedDimension
 13
1087.826134914264
 23
140.7118158697311
 33
0.0
 14
1101.826106914253
 24
140.7118158697311
 34
0.0
100
AcDbRotatedDimension
1001
ACAD
1000
DSTYLE
1002
{
1070
   345
1005
5F5E
1070
   346
1005
5F5E
1070
   347
1005
5F5E
1002
}
  0
DIMENSION
  5
7392
330
5F6E
100
AcDbEntity
  8
标注
100
AcDbDimension
  2
*D37
 10
1116.326077914251
 20
137.6765026903683
 30
0.0
 11
1109.576091414252
 21
137.6765026903683
 31
0.0
 70
    32
 71
     5
 42
13.49997299999813
  3
副本STANDARD
100
AcDbAlignedDimension
 13
1102.826104914253
 23
140.7118158697311
 33
0.0
 14
1116.326077914251
 24
140.7118158697311
 34
0.0
100
AcDbRotatedDimension
1001
ACAD
1000
DSTYLE
1002
{
1070
   345
1005
5F5E
1070
   346
1005
5F5E
1070
   347
1005
5F5E
1002
}
  0
DIMENSION
  5
73A0
330
5F6E
100
AcDbEntity
  8
标注
100
AcDbDimension
  2
*D38
 10
1117.326075914265
 20
135.8417993268533
 30
0.0
 11
1102.076106414265
 21
135.8417993268533
 31
0.0
 70
    32
 71
     5
 42
30.49993900000118
  3
副本STANDARD
100
AcDbAlignedDimension
 13
1086.826136914264
 23
140.1330768697415
 33
0.0
 14
1117.326075914265
 24
140.1330768697415
 34
0.0
100
AcDbRotatedDimension
1001
ACAD
1000
DSTYLE
1002
{
1070
   345
1005
5F5E
1070
   346
1005
5F5E
1070
   347
1005
5F5E
1002
}
  0
DIMENSION
  5
73AE
330
5F6E
100
AcDbEntity
  8
标注
100
AcDbDimension
  2
*D39
 10
1119.328475386316
 20
156.3180838697343
 30
0.0
 11
1119.328475386316
 21
148.3180998697399
 31
0.0
 70
    32
 71
     5
 42
15.99996799998917
  3
副本STANDARD
100
AcDbAlignedDimension
 13
1115.932377914265
 23
140.3181158697451
 33
0.0
 14
1115.932377914265
 24
156.3180838697343
 34
0.0
 50
90.0
100
AcDbRotatedDimension
1001
ACAD
1000
DSTYLE
1002
{
1070
   345
1005
5F5E
1070
   346
1005
5F5E
1070
   347
1005
5F5E
1002
}
  0
DIMENSION
  5
73BC
330
5F6E
100
AcDbEntity
  8
标注
100
AcDbDimension
  2
*D40
 10
1121.079578579382
 20
157.3180818697482
 30
0.0
 11
1121.079578579382
 21
148.3180998697399
 31
0.0
 70
    32
 71
     5
 42
17.99996400001691
  3
副本STANDARD
100
AcDbAlignedDimension
 13
1116.326077914251
 23
139.3181178697313
 33
0.0
 14
1116.326077914251
 24
157.3180818697482
 34
0.0
 50
90.0
100
AcDbRotatedDimension
1001
ACAD
1000
DSTYLE
1002
{
1070
   345
1005
5F5E
1070
   346
1005
5F5E
1070
   347
1005
5F5E
1002
}
  0
DIMENSION
  5
73CA
330
5F6E
100
AcDbEntity
  8
标注
100
AcDbDimension
  2
*D41
 10
1084.63469797616
 20
158.318079869747
 30
0.0
 11
1084.63469797616
 21
149.3180978697463
 31
0.0
 70
    32
 71
     5
 42
17.99996400000182
  3
副本STANDARD
100
AcDbAlignedDimension
 13
1088.219834914264
 23
140.3181158697451
 33
0.0
 14
1088.219834914264
 24
158.3180798697469
 34
0.0
 50
90.0
100
AcDbRotatedDimension
1001
ACAD
1000
DSTYLE
1002
{
1070
   345
1005
5F5E
1070
   346
1005
5F5E
1070
   347
1005
5F5E
1002
}
  0
DIMENSION
  5
73D8
330
5F6E
100
AcDbEntity
  8
标注
100
AcDbDimension
  2
*D42
 10
1083.046852525392
 20
159.3180778697468
 30
0.0
 11
1083.046852525392
 21
149.3180978697392
 31
0.0
 70
    32
 71
     5
 42
19.99996000001559
  3
副本STANDARD
100
AcDbAlignedDimension
 13
1087.826134914264
 23
139.3181178697313
 33
0.0
 14
1087.826134914264
 24
159.3180778697468
 34
0.0
 50
90.0
100
AcDbRotatedDimension
1001
ACAD
1000
DSTYLE
1002
{
1070
   345
1005
5F5E
1070
   346
1005
5F5E
1070
   347
1005
5F5E
1002
}
  0
DIMENSION
  5
73E6
330
5F6E
100
AcDbEntity
  8
标注
100
AcDbDimension
  2
*D43
 10
1118.95042847519
 20
174.4949172258676
 30
0.0
 11
1118.95042847519
 21
178.524293025368
 31
0.0
 70
    32
 71
     5
 42
8.058751599000402
  3
副本STANDARD
100
AcDbAlignedDimension
 13
1117.326075914265
 23
182.553668824868
 33
0.0
 14
1116.523086721223
 24
174.4949172258676
 34
0.0
 50
90.0
100
AcDbRotatedDimension
1001
ACAD
1000
DSTYLE
1002
{
1070
   345
1005
5F5E
1070
   346
1005
5F5E
1070
   347
1005
5F5E
1002
}
  0
DIMENSION
  5
7408
330
5F6E
100
AcDbEntity
  8
标注
100
AcDbDimension
  2
*D44
 10
1084.634972872463
 20
172.4949212258793
 30
0.0
 11
1084.634972872463
 21
177.5242950253739
 31
0.0
 70
    32
 71
     5
 42
10.0587475989887
  3
副本STANDARD
100
AcDbAlignedDimension
 13
1086.826136914264
 23
182.553668824868
 33
0.0
 14
1087.034729839747
 24
172.4949212258793
 34
0.0
 50
90.0
100
AcDbRotatedDimension
1001
ACAD
1000
DSTYLE
1002
{
1070
   345
1005
5F5E
1070
   346
1005
5F5E
1070
   347
1005
5F5E
1002
}
  0
DIMENSION
  5
742A
330
5F6E
100
AcDbEntity
  8
标注
100
AcDbDimension
  2
*D46
 10
1088.219834914264
 20
157.924379869747
 30
0.0
 11
1089.235754754161
 21
157.3364955598512
 31
0.0
 70
   164
 71
     5
 42
0.3937000000000807
  3
副本STANDARD
100
AcDbRadialDimension
 15
1087.978456404431
 25
158.2354041533501
 35
0.0
 40
0.0
1001
ACAD
1000
DSTYLE
1002
{
1070
   288
1070
     1
1070
   345
1005
5F5E
1070
   346
1005
5F5E
1070
   347
1005
5F5E
1002
}
1001
ACAD_DSTYLE_DIMRADIAL_EXTENSION
1070
   387
1070
     1
1070
   388
1040
1.570796326794896
1070
   390
1040
3.141592653589793
  0
DIMENSION
  5
7434
330
5F6E
100
AcDbEntity
  8
标注
100
AcDbDimension
  2
*D47
 10
1088.219834914264
 20
173.0174872894418
 30
0.0
 11
1088.841124194928
 21
173.9282861743122
 31
0.0
 70
   164
 71
     5
 42
0.3937000000001944
  3
副本STANDARD
100
AcDbRadialDimension
 15
1087.902287284522
 25
172.784757418464
 35
0.0
 40
0.0
1001
ACAD
1000
DSTYLE
1002
{
1070
   288
1070
     1
1070
   345
1005
5F5E
1070
   346
1005
5F5E
1070
   347
1005
5F5E
1002
}
1001
ACAD_DSTYLE_DIMRADIAL_EXTENSION
1070
   387
1070
     1
1070
   388
1040
3.141592653589793
1070
   390
1040
4.68211805048281
  0
ENDSEC
  0
SECTION
  2
OBJECTS
  0
DICTIONARY
  5
5F06
330
0
100
AcDbDictionary
281
     1
  3
ACAD_2007HEADERVARS_RT
350
7461
  3
ACAD_COLOR
350
5F64
  3
ACAD_GROUP
350
5F07
  3
ACAD_LAYOUT
350
5F63
  3
ACAD_MATERIAL
350
5F0A
  3
ACAD_MLEADERSTYLE
350
5F67
  3
ACAD_MLINESTYLE
350
5F60
  3
ACAD_PLOTSETTINGS
350
5F62
  3
ACAD_PLOTSTYLENAME
350
5F08
  3
ACAD_SCALELIST
350
5F34
  3
ACAD_TABLESTYLE
350
5F65
  3
ACAD_VISUALSTYLE
350
5F23
  3
ACDB_RECOMPOSE_DATA
350
6F70
  3
AcDbVariableDictionary
350
6102
  3
DWGPROPS
350
7460
  3
lxx_dict
350
60F2
  0
DICTIONARY
  5
61B7
330
5EFC
100
AcDbDictionary
280
     1
281
     1
  3
ACAD_LAYERSTATES
360
61B8
  0
DICTIONARY
  5
60F4
330
5F56
100
AcDbDictionary
280
     1
281
     1
  3
ADSK_XREC_LAYER_RECONCILED
360
60F5
  0
DICTIONARY
  5
60F6
330
5F72
100
AcDbDictionary
280
     1
281
     1
  3
ADSK_XREC_LAYER_RECONCILED
360
60F7
  0
DICTIONARY
  5
60F8
330
5F7D
100
AcDbDictionary
280
     1
281
     1
  3
ADSK_XREC_LAYER_RECONCILED
360
60F9
  0
DICTIONARY
  5
60FA
330
5F7E
100
AcDbDictionary
280
     1
281
     1
  3
ADSK_XREC_LAYER_RECONCILED
360
60FB
  0
DICTIONARY
  5
60FC
330
5F80
100
AcDbDictionary
280
     1
281
     1
  3
ADSK_XREC_LAYER_RECONCILED
360
60FD
  0
DICTIONARY
  5
61B2
330
61B1
100
AcDbDictionary
280
     1
281
     1
  0
DICTIONARY
  5
6B9D
330
6B9C
100
AcDbDictionary
280
     1
281
     1
  0
DICTIONARY
  5
654F
330
5F6E
100
AcDbDictionary
280
     1
281
     1
  3
ACAD_SORTENTS
360
6550
  0
DICTIONARY
  5
7461
102
{ACAD_REACTORS
330
5F06
102
}
330
5F06
100
AcDbDictionary
281
     1
  3
DIMLTEX1
350
7463
  3
DIMLTEX2
350
7464
  3
DIMLTYPE
350
7462
  0
DICTIONARY
  5
5F64
102
{ACAD_REACTORS
330
5F06
102
}
330
5F06
100
AcDbDictionary
281
     1
  0
DICTIONARY
  5
5F07
102
{ACAD_REACTORS
330
5F06
102
}
330
5F06
100
AcDbDictionary
281
     1
  0
DICTIONARY
  5
5F63
102
{ACAD_REACTORS
330
5F06
102
}
330
5F06
100
AcDbDictionary
281
     1
  3
Model
350
5F71
  3
布局1
350
5F6D
  0
DICTIONARY
  5
5F0A
102
{ACAD_REACTORS
330
5F06
102
}
330
5F06
100
AcDbDictionary
281
     1
  3
ByBlock
350
5F13
  3
ByLayer
350
5F0B
  3
Global
350
5F1B
  0
DICTIONARY
  5
5F67
102
{ACAD_REACTORS
330
5F06
102
}
330
5F06
100
AcDbDictionary
281
     1
  3
Standard
350
5F68
  0
DICTIONARY
  5
5F60
102
{ACAD_REACTORS
330
5F06
102
}
330
5F06
100
AcDbDictionary
281
     1
  3
Standard
350
5F61
  0
DICTIONARY
  5
5F62
102
{ACAD_REACTORS
330
5F06
102
}
330
5F06
100
AcDbDictionary
281
     1
  0
ACDBDICTIONARYWDFLT
  5
5F08
102
{ACAD_REACTORS
330
5F06
102
}
330
5F06
100
AcDbDictionary
281
     1
  3
Normal
350
5F09
100
AcDbDictionaryWithDefault
340
5F09
  0
DICTIONARY
  5
5F34
102
{ACAD_REACTORS
330
5F06
102
}
330
5F06
100
AcDbDictionary
281
     1
  3
A0
350
5F35
  3
A1
350
5F36
  3
A2
350
5F37
  3
A3
350
5F38
  3
A4
350
5F39
  3
A5
350
5F3A
  3
A6
350
5F3B
  3
A7
350
5F3C
  3
A8
350
5F3D
  3
A9
350
5F3E
  3
B0
350
5F3F
  3
B1
350
5F40
  3
B2
350
5F41
  3
B3
350
5F42
  3
B4
350
5F43
  3
B5
350
5F44
  3
B6
350
5F45
  3
B7
350
5F46
  3
B8
350
5F47
  3
B9
350
5F48
  3
C0
350
5F49
  3
C1
350
5F4A
  3
C2
350
5F4B
  3
C3
350
5F4C
  3
C4
350
5F4D
  3
C5
350
5F4E
  3
C6
350
5F4F
  3
C7
350
5F50
  3
C8
350
5F51
  3
C9
350
5F52
  3
D0
350
5F53
  3
D1
350
5F54
  3
D2
350
5F55
  0
DICTIONARY
  5
5F65
102
{ACAD_REACTORS
330
5F06
102
}
330
5F06
100
AcDbDictionary
281
     1
  3
Standard
350
5F66
  0
DICTIONARY
  5
5F23
102
{ACAD_REACTORS
330
5F06
102
}
330
5F06
100
AcDbDictionary
281
     1
  3
2dWireframe
350
5F29
  3
3D Hidden
350
5F2B
  3
3dWireframe
350
5F2A
  3
Basic
350
5F28
  3
Brighten
350
5F2F
  3
ColorChange
350
5F33
  3
Conceptual
350
5F2C
  3
Dim
350
5F2E
  3
Facepattern
350
5F32
  3
Flat
350
5F24
  3
FlatWithEdges
350
5F25
  3
Gouraud
350
5F26
  3
GouraudWithEdges
350
5F27
  3
Linepattern
350
5F31
  3
Realistic
350
5F2D
  3
Thicken
350
5F30
  0
XRECORD
  5
6F70
102
{ACAD_REACTORS
330
5F06
102
}
330
5F06
100
AcDbXrecord
280
     1
 90
        1
330
5F66
  0
DICTIONARY
  5
6102
102
{ACAD_REACTORS
330
5F06
102
}
330
5F06
100
AcDbDictionary
281
     1
  3
CANNOSCALE
350
6105
  3
CMLEADERSTYLE
350
6104
  3
CTABLESTYLE
350
6103
  3
DIMASSOC
350
6108
  3
INDEXCTL
350
6107
  3
SORTENTS
350
6106
  0
XRECORD
  5
7460
102
{ACAD_REACTORS
330
5F06
102
}
330
5F06
100
AcDbXrecord
280
     1
  1
DWGPROPS COOKIE
  2

  3

  4

  6

  7

  8
Administrator
  9

300
=
301
=
302
=
303
=
304
=
305
=
306
=
307
=
308
=
309
=
 40
0.6158802777777778
 41
2455434.724808658
 42
2458563.432796505
  1

 90
        0
  0
DICTIONARY
  5
60F2
102
{ACAD_REACTORS
330
5F06
102
}
330
5F06
100
AcDbDictionary
281
     1
  3
lxx_dimth
350
60F3
  0
DICTIONARY
  5
61B8
102
{ACAD_REACTORS
330
61B7
102
}
330
61B7
100
AcDbDictionary
281
     1
  0
XRECORD
  5
60F5
102
{ACAD_REACTORS
330
60F4
102
}
330
60F4
100
AcDbXrecord
280
     1
290
     1
  0
XRECORD
  5
60F7
102
{ACAD_REACTORS
330
60F6
102
}
330
60F6
100
AcDbXrecord
280
     1
290
     1
  0
XRECORD
  5
60F9
102
{ACAD_REACTORS
330
60F8
102
}
330
60F8
100
AcDbXrecord
280
     1
290
     1
  0
XRECORD
  5
60FB
102
{ACAD_REACTORS
330
60FA
102
}
330
60FA
100
AcDbXrecord
280
     1
290
     1
  0
XRECORD
  5
60FD
102
{ACAD_REACTORS
330
60FC
102
}
330
60FC
100
AcDbXrecord
280
     1
290
     1
  0
SORTENTSTABLE
  5
6550
102
{ACAD_REACTORS
330
654F
102
}
330
654F
100
AcDbSortentsTable
330
5F6E
  0
XRECORD
  5
7463
102
{ACAD_REACTORS
330
7461
102
}
330
7461
100
AcDbXrecord
280
     1
340
5F5E
  0
XRECORD
  5
7464
102
{ACAD_REACTORS
330
7461
102
}
330
7461
100
AcDbXrecord
280
     1
340
5F5E
  0
XRECORD
  5
7462
102
{ACAD_REACTORS
330
7461
102
}
330
7461
100
AcDbXrecord
280
     1
340
5F5E
  0
LAYOUT
  5
5F71
102
{ACAD_XDICTIONARY
360
7468
102
}
102
{ACAD_REACTORS
330
5F63
102
}
330
5F63
100
AcDbPlotSettings
  1

  2
\\192.168.1.64\Canon LBP2900
  4

  6

 40
0.0
 41
0.0
 42
0.0
 43
0.0
 44
0.0
 45
0.0
 46
0.0
 47
0.0
 48
0.0
 49
0.0
140
0.0
141
0.0
142
1.0
143
1.0
 70
  1712
 72
     0
 73
     0
 74
     0
  7

 75
     0
147
1.0
148
0.0
149
0.0
100
AcDbLayout
  1
Model
 70
     1
 71
     0
 10
0.0
 20
0.0
 11
12.0
 21
9.0
 12
0.0
 22
0.0
 32
0.0
 14
0.0
 24
0.0
 34
0.0
 15
0.0
 25
0.0
 35
0.0
146
0.0
 13
0.0
 23
0.0
 33
0.0
 16
1.0
 26
0.0
 36
0.0
 17
0.0
 27
1.0
 37
0.0
 76
     0
330
5F6E
331
5F73
  0
LAYOUT
  5
5F6D
102
{ACAD_XDICTIONARY
360
7466
102
}
102
{ACAD_REACTORS
330
5F63
102
}
330
5F63
100
AcDbPlotSettings
  1

  2
\\192.168.1.64\Canon LBP2900
  4

  6

 40
0.0
 41
0.0
 42
0.0
 43
0.0
 44
0.0
 45
0.0
 46
0.0
 47
0.0
 48
0.0
 49
0.0
140
0.0
141
0.0
142
1.0
143
1.0
 70
   688
 72
     0
 73
     0
 74
     5
  7

 75
    16
147
1.0
148
0.0
149
0.0
100
AcDbLayout
  1
布局1
 70
     1
 71
     1
 10
0.0
 20
0.0
 11
12.0
 21
9.0
 12
0.0
 22
0.0
 32
0.0
 14
1.000000000000000E+20
 24
1.000000000000000E+20
 34
1.000000000000000E+20
 15
-1.000000000000000E+20
 25
-1.000000000000000E+20
 35
-1.000000000000000E+20
146
0.0
 13
0.0
 23
0.0
 33
0.0
 16
1.0
 26
0.0
 36
0.0
 17
0.0
 27
1.0
 37
0.0
 76
     0
330
5F6A
  0
MATERIAL
  5
5F13
102
{ACAD_XDICTIONARY
360
5F14
102
}
102
{ACAD_REACTORS
330
5F0A
102
}
330
5F0A
100
AcDbMaterial
  1
ByBlock
 72
     0
 43
0.0208333333333333
 43
0.0
 43
0.0
 43
0.0
 43
0.0
 43
0.0208333333333333
 43
0.0
 43
0.0
 43
0.0
 43
0.0
 43
1.0
 43
0.0
 43
0.0
 43
0.0
 43
0.0
 43
1.0
 77
     0
 47
0.0208333333333333
 47
0.0
 47
0.0
 47
0.0
 47
0.0
 47
0.0208333333333333
 47
0.0
 47
0.0
 47
0.0
 47
0.0
 47
1.0
 47
0.0
 47
0.0
 47
0.0
 47
0.0
 47
1.0
171
     0
 49
0.0208333333333333
 49
0.0
 49
0.0
 49
0.0
 49
0.0
 49
0.0208333333333333
 49
0.0
 49
0.0
 49
0.0
 49
0.0
 49
1.0
 49
0.0
 49
0.0
 49
0.0
 49
0.0
 49
1.0
175
     0
142
0.0208333333333333
142
0.0
142
0.0
142
0.0
142
0.0
142
0.0208333333333333
142
0.0
142
0.0
142
0.0
142
0.0
142
1.0
142
0.0
142
0.0
142
0.0
142
0.0
142
1.0
179
     0
144
0.0208333333333333
144
0.0
144
0.0
144
0.0
144
0.0
144
0.0208333333333333
144
0.0
144
0.0
144
0.0
144
0.0
144
1.0
144
0.0
144
0.0
144
0.0
144
0.0
144
1.0
147
0.0208333333333333
147
0.0
147
0.0
147
0.0
147
0.0
147
0.0208333333333333
147
0.0
147
0.0
147
0.0
147
0.0
147
1.0
147
0.0
147
0.0
147
0.0
147
0.0
147
1.0
  0
MATERIAL
  5
5F0B
102
{ACAD_XDICTIONARY
360
5F0C
102
}
102
{ACAD_REACTORS
330
5F0A
102
}
330
5F0A
100
AcDbMaterial
  1
ByLayer
 72
     0
 43
0.0208333333333333
 43
0.0
 43
0.0
 43
0.0
 43
0.0
 43
0.0208333333333333
 43
0.0
 43
0.0
 43
0.0
 43
0.0
 43
1.0
 43
0.0
 43
0.0
 43
0.0
 43
0.0
 43
1.0
 77
     0
 47
0.0208333333333333
 47
0.0
 47
0.0
 47
0.0
 47
0.0
 47
0.0208333333333333
 47
0.0
 47
0.0
 47
0.0
 47
0.0
 47
1.0
 47
0.0
 47
0.0
 47
0.0
 47
0.0
 47
1.0
171
     0
 49
0.0208333333333333
 49
0.0
 49
0.0
 49
0.0
 49
0.0
 49
0.0208333333333333
 49
0.0
 49
0.0
 49
0.0
 49
0.0
 49
1.0
 49
0.0
 49
0.0
 49
0.0
 49
0.0
 49
1.0
175
     0
142
0.0208333333333333
142
0.0
142
0.0
142
0.0
142
0.0
142
0.0208333333333333
142
0.0
142
0.0
142
0.0
142
0.0
142
1.0
142
0.0
142
0.0
142
0.0
142
0.0
142
1.0
179
     0
144
0.0208333333333333
144
0.0
144
0.0
144
0.0
144
0.0
144
0.0208333333333333
144
0.0
144
0.0
144
0.0
144
0.0
144
1.0
144
0.0
144
0.0
144
0.0
144
0.0
144
1.0
147
0.0208333333333333
147
0.0
147
0.0
147
0.0
147
0.0
147
0.0208333333333333
147
0.0
147
0.0
147
0.0
147
0.0
147
1.0
147
0.0
147
0.0
147
0.0
147
0.0
147
1.0
  0
MATERIAL
  5
5F1B
102
{ACAD_XDICTIONARY
360
5F1C
102
}
102
{ACAD_REACTORS
330
5F0A
102
}
330
5F0A
100
AcDbMaterial
  1
Global
 72
     0
 43
0.0208333333333333
 43
0.0
 43
0.0
 43
0.0
 43
0.0
 43
0.0208333333333333
 43
0.0
 43
0.0
 43
0.0
 43
0.0
 43
1.0
 43
0.0
 43
0.0
 43
0.0
 43
0.0
 43
1.0
 77
     0
 47
0.0208333333333333
 47
0.0
 47
0.0
 47
0.0
 47
0.0
 47
0.0208333333333333
 47
0.0
 47
0.0
 47
0.0
 47
0.0
 47
1.0
 47
0.0
 47
0.0
 47
0.0
 47
0.0
 47
1.0
171
     0
 49
0.0208333333333333
 49
0.0
 49
0.0
 49
0.0
 49
0.0
 49
0.0208333333333333
 49
0.0
 49
0.0
 49
0.0
 49
0.0
 49
1.0
 49
0.0
 49
0.0
 49
0.0
 49
0.0
 49
1.0
175
     0
142
0.0208333333333333
142
0.0
142
0.0
142
0.0
142
0.0
142
0.0208333333333333
142
0.0
142
0.0
142
0.0
142
0.0
142
1.0
142
0.0
142
0.0
142
0.0
142
0.0
142
1.0
179
     0
144
0.0208333333333333
144
0.0
144
0.0
144
0.0
144
0.0
144
0.0208333333333333
144
0.0
144
0.0
144
0.0
144
0.0
144
1.0
144
0.0
144
0.0
144
0.0
144
0.0
144
1.0
147
0.0208333333333333
147
0.0
147
0.0
147
0.0
147
0.0
147
0.0208333333333333
147
0.0
147
0.0
147
0.0
147
0.0
147
1.0
147
0.0
147
0.0
147
0.0
147
0.0
147
1.0
  0
MLEADERSTYLE
  5
5F68
102
{ACAD_REACTORS
330
5F67
102
}
330
5F67
100
AcDbMLeaderStyle
170
     2
171
     1
172
     0
 90
        2
 40
0.0
 41
0.0
173
     1
 91
-1056964608
340
5F5C
 92
       -2
290
     1
 42
0.09
291
     1
 43
0.36
  3
Standard
 44
0.18
300

342
5F57
174
     1
178
     6
175
     1
176
     0
 93
-1056964608
 45
0.18
292
     0
297
     0
 46
0.18
 94
-1056964608
 47
1.0
 49
1.0
140
1.0
293
     1
141
0.0
294
     1
177
     0
142
1.0
295
     0
296
     0
143
0.125
1001
ACAD_MLEADERVER
1070
     2
  0
MLINESTYLE
  5
5F61
102
{ACAD_REACTORS
330
5F60
102
}
330
5F60
100
AcDbMlineStyle
  2
STANDARD
 70
     0
  3

 62
   256
 51
90.0
 52
90.0
 71
     2
 49
0.5
 62
   256
  6
BYLAYER
 49
-0.5
 62
   256
  6
BYLAYER
  0
ACDBPLACEHOLDER
  5
5F09
102
{ACAD_REACTORS
330
5F08
102
}
330
5F08
  0
SCALE
  5
5F35
102
{ACAD_REACTORS
330
5F34
102
}
330
5F34
100
AcDbScale
 70
     0
300
1:1
140
1.0
141
1.0
290
     1
  0
SCALE
  5
5F36
102
{ACAD_REACTORS
330
5F34
102
}
330
5F34
100
AcDbScale
 70
     0
300
1:2
140
1.0
141
2.0
290
     0
  0
SCALE
  5
5F37
102
{ACAD_REACTORS
330
5F34
102
}
330
5F34
100
AcDbScale
 70
     0
300
1:4
140
1.0
141
4.0
290
     0
  0
SCALE
  5
5F38
102
{ACAD_REACTORS
330
5F34
102
}
330
5F34
100
AcDbScale
 70
     0
300
1:5
140
1.0
141
5.0
290
     0
  0
SCALE
  5
5F39
102
{ACAD_REACTORS
330
5F34
102
}
330
5F34
100
AcDbScale
 70
     0
300
1:8
140
1.0
141
8.0
290
     0
  0
SCALE
  5
5F3A
102
{ACAD_REACTORS
330
5F34
102
}
330
5F34
100
AcDbScale
 70
     0
300
1:10
140
1.0
141
10.0
290
     0
  0
SCALE
  5
5F3B
102
{ACAD_REACTORS
330
5F34
102
}
330
5F34
100
AcDbScale
 70
     0
300
1:16
140
1.0
141
16.0
290
     0
  0
SCALE
  5
5F3C
102
{ACAD_REACTORS
330
5F34
102
}
330
5F34
100
AcDbScale
 70
     0
300
1:20
140
1.0
141
20.0
290
     0
  0
SCALE
  5
5F3D
102
{ACAD_REACTORS
330
5F34
102
}
330
5F34
100
AcDbScale
 70
     0
300
1:30
140
1.0
141
30.0
290
     0
  0
SCALE
  5
5F3E
102
{ACAD_REACTORS
330
5F34
102
}
330
5F34
100
AcDbScale
 70
     0
300
1:40
140
1.0
141
40.0
290
     0
  0
SCALE
  5
5F3F
102
{ACAD_REACTORS
330
5F34
102
}
330
5F34
100
AcDbScale
 70
     0
300
1:50
140
1.0
141
50.0
290
     0
  0
SCALE
  5
5F40
102
{ACAD_REACTORS
330
5F34
102
}
330
5F34
100
AcDbScale
 70
     0
300
1:100
140
1.0
141
100.0
290
     0
  0
SCALE
  5
5F41
102
{ACAD_REACTORS
330
5F34
102
}
330
5F34
100
AcDbScale
 70
     0
300
2:1
140
2.0
141
1.0
290
     0
  0
SCALE
  5
5F42
102
{ACAD_REACTORS
330
5F34
102
}
330
5F34
100
AcDbScale
 70
     0
300
4:1
140
4.0
141
1.0
290
     0
  0
SCALE
  5
5F43
102
{ACAD_REACTORS
330
5F34
102
}
330
5F34
100
AcDbScale
 70
     0
300
8:1
140
8.0
141
1.0
290
     0
  0
SCALE
  5
5F44
102
{ACAD_REACTORS
330
5F34
102
}
330
5F34
100
AcDbScale
 70
     0
300
10:1
140
10.0
141
1.0
290
     0
  0
SCALE
  5
5F45
102
{ACAD_REACTORS
330
5F34
102
}
330
5F34
100
AcDbScale
 70
     0
300
100:1
140
100.0
141
1.0
290
     0
  0
SCALE
  5
5F46
102
{ACAD_REACTORS
330
5F34
102
}
330
5F34
100
AcDbScale
 70
     0
300
1/128" = 1'-0"
140
0.0078125
141
12.0
290
     0
  0
SCALE
  5
5F47
102
{ACAD_REACTORS
330
5F34
102
}
330
5F34
100
AcDbScale
 70
     0
300
1/64" = 1'-0"
140
0.015625
141
12.0
290
     0
  0
SCALE
  5
5F48
102
{ACAD_REACTORS
330
5F34
102
}
330
5F34
100
AcDbScale
 70
     0
300
1/32" = 1'-0"
140
0.03125
141
12.0
290
     0
  0
SCALE
  5
5F49
102
{ACAD_REACTORS
330
5F34
102
}
330
5F34
100
AcDbScale
 70
     0
300
1/16" = 1'-0"
140
0.0625
141
12.0
290
     0
  0
SCALE
  5
5F4A
102
{ACAD_REACTORS
330
5F34
102
}
330
5F34
100
AcDbScale
 70
     0
300
3/32" = 1'-0"
140
0.09375
141
12.0
290
     0
  0
SCALE
  5
5F4B
102
{ACAD_REACTORS
330
5F34
102
}
330
5F34
100
AcDbScale
 70
     0
300
1/8" = 1'-0"
140
0.125
141
12.0
290
     0
  0
SCALE
  5
5F4C
102
{ACAD_REACTORS
330
5F34
102
}
330
5F34
100
AcDbScale
 70
     0
300
3/16" = 1'-0"
140
0.1875
141
12.0
290
     0
  0
SCALE
  5
5F4D
102
{ACAD_REACTORS
330
5F34
102
}
330
5F34
100
AcDbScale
 70
     0
300
1/4" = 1'-0"
140
0.25
141
12.0
290
     0
  0
SCALE
  5
5F4E
102
{ACAD_REACTORS
330
5F34
102
}
330
5F34
100
AcDbScale
 70
     0
300
3/8" = 1'-0"
140
0.375
141
12.0
290
     0
  0
SCALE
  5
5F4F
102
{ACAD_REACTORS
330
5F34
102
}
330
5F34
100
AcDbScale
 70
     0
300
1/2" = 1'-0"
140
0.5
141
12.0
290
     0
  0
SCALE
  5
5F50
102
{ACAD_REACTORS
330
5F34
102
}
330
5F34
100
AcDbScale
 70
     0
300
3/4" = 1'-0"
140
0.75
141
12.0
290
     0
  0
SCALE
  5
5F51
102
{ACAD_REACTORS
330
5F34
102
}
330
5F34
100
AcDbScale
 70
     0
300
1" = 1'-0"
140
1.0
141
12.0
290
     0
  0
SCALE
  5
5F52
102
{ACAD_REACTORS
330
5F34
102
}
330
5F34
100
AcDbScale
 70
     0
300
1-1/2" = 1'-0"
140
1.5
141
12.0
290
     0
  0
SCALE
  5
5F53
102
{ACAD_REACTORS
330
5F34
102
}
330
5F34
100
AcDbScale
 70
     0
300
3" = 1'-0"
140
3.0
141
12.0
290
     0
  0
SCALE
  5
5F54
102
{ACAD_REACTORS
330
5F34
102
}
330
5F34
100
AcDbScale
 70
     0
300
6" = 1'-0"
140
6.0
141
12.0
290
     0
  0
SCALE
  5
5F55
102
{ACAD_REACTORS
330
5F34
102
}
330
5F34
100
AcDbScale
 70
     0
300
1'-0" = 1'-0"
140
12.0
141
12.0
290
     0
  0
TABLESTYLE
  5
5F66
102
{ACAD_XDICTIONARY
360
6F6E
102
}
102
{ACAD_REACTORS
330
5F65
102
}
330
5F65
100
AcDbTableStyle
  3
Standard
 70
     0
 71
     0
 40
0.06
 41
0.06
280
     0
281
     0
  7
STANDARD
140
0.18
170
     2
 62
     0
 63
     7
283
     0
274
    -2
284
     1
 64
     0
275
    -2
285
     1
 65
     0
276
    -2
286
     1
 66
     0
277
    -2
287
     1
 67
     0
278
    -2
288
     1
 68
     0
279
    -2
289
     1
 69
     0
  7
STANDARD
140
0.25
170
     5
 62
     0
 63
     7
283
     0
274
    -2
284
     1
 64
     0
275
    -2
285
     1
 65
     0
276
    -2
286
     1
 66
     0
277
    -2
287
     1
 67
     0
278
    -2
288
     1
 68
     0
279
    -2
289
     1
 69
     0
  7
STANDARD
140
0.18
170
     5
 62
     0
 63
     7
283
     0
274
    -2
284
     1
 64
     0
275
    -2
285
     1
 65
     0
276
    -2
286
     1
 66
     0
277
    -2
287
     1
 67
     0
278
    -2
288
     1
 68
     0
279
    -2
289
     1
 69
     0
  0
VISUALSTYLE
  5
5F29
102
{ACAD_REACTORS
330
5F23
102
}
330
5F23
100
AcDbVisualStyle
  2
2dWireframe
 70
     4
 71
     0
 72
     2
 73
     0
 90
        0
 40
-0.6
 41
-30.0
 62
     5
 63
     7
 74
     1
 91
        4
 64
     7
 65
   257
 75
     1
175
     1
 42
1.0
 92
        0
 66
   257
 43
1.0
 76
     1
 77
     6
 78
     2
 67
     7
 79
     5
170
     0
171
     0
290
     0
174
     0
 93
        1
 44
0.0
173
     0
291
     0
 45
0.0
1001
ACAD
1000
AcDbSavedByObjectVersion
1070
     0
1000
AcDbSavedByObjectVersion
1070
     0
  0
VISUALSTYLE
  5
5F2B
102
{ACAD_REACTORS
330
5F23
102
}
330
5F23
100
AcDbVisualStyle
  2
3D Hidden
 70
     6
 71
     1
 72
     2
 73
     2
 90
        0
 40
-0.6
 41
-30.0
 62
     5
 63
     7
 74
     2
 91
        2
 64
     7
 65
   257
 75
     2
175
     1
 42
40.0
 92
        0
 66
   257
 43
1.0
 76
     1
 77
     6
 78
     2
 67
     7
 79
     3
170
     0
171
     0
290
     0
174
     0
 93
        1
 44
0.0
173
     0
291
     0
 45
0.0
1001
ACAD
1000
AcDbSavedByObjectVersion
1070
     0
1000
AcDbSavedByObjectVersion
1070
     0
  0
VISUALSTYLE
  5
5F2A
102
{ACAD_REACTORS
330
5F23
102
}
330
5F23
100
AcDbVisualStyle
  2
3dWireframe
 70
     5
 71
     0
 72
     2
 73
     0
 90
        0
 40
-0.6
 41
-30.0
 62
     5
 63
     7
 74
     1
 91
        4
 64
     7
 65
   257
 75
     1
175
     1
 42
1.0
 92
        0
 66
   257
 43
1.0
 76
     1
 77
     6
 78
     2
 67
     7
 79
     5
170
     0
171
     0
290
     0
174
     0
 93
        1
 44
0.0
173
     0
291
     0
 45
0.0
1001
ACAD
1000
AcDbSavedByObjectVersion
1070
     0
1000
AcDbSavedByObjectVersion
1070
     0
  0
VISUALSTYLE
  5
5F28
102
{ACAD_REACTORS
330
5F23
102
}
330
5F23
100
AcDbVisualStyle
  2
Basic
 70
     7
 71
     1
 72
     0
 73
     1
 90
        0
 40
-0.6
 41
-30.0
 62
     5
 63
     7
 74
     0
 91
        4
 64
     7
 65
   257
 75
     1
175
     1
 42
1.0
 92
        8
 66
     7
 43
1.0
 76
     1
 77
     6
 78
     2
 67
     7
 79
     5
170
     0
171
     0
290
     0
174
     0
 93
        1
 44
0.0
173
     0
291
     1
 45
0.0
1001
ACAD
1000
AcDbSavedByObjectVersion
1070
     0
1000
AcDbSavedByObjectVersion
1070
     0
  0
VISUALSTYLE
  5
5F2F
102
{ACAD_REACTORS
330
5F23
102
}
330
5F23
100
AcDbVisualStyle
  2
Brighten
 70
    12
 71
     2
 72
     2
 73
     0
 90
        0
 40
-0.6
 41
-30.0
 62
     5
 63
     7
 74
     1
 91
        4
 64
     7
 65
   257
 75
     1
175
     1
 42
1.0
 92
        8
 66
     7
 43
1.0
 76
     1
 77
     6
 78
     2
 67
     7
 79
     5
170
     0
171
     0
290
     0
174
     0
 93
        1
 44
50.0
173
     0
291
     1
 45
0.0
1001
ACAD
1000
AcDbSavedByObjectVersion
1070
     0
1000
AcDbSavedByObjectVersion
1070
     0
  0
VISUALSTYLE
  5
5F33
102
{ACAD_REACTORS
330
5F23
102
}
330
5F23
100
AcDbVisualStyle
  2
ColorChange
 70
    16
 71
     2
 72
     2
 73
     3
 90
        0
 40
-0.6
 41
-30.0
 62
     5
 63
     8
 74
     1
 91
        4
 64
     7
 65
   257
 75
     1
175
     1
 42
1.0
 92
        8
 66
     8
 43
1.0
 76
     1
 77
     6
 78
     2
 67
     7
 79
     5
170
     0
171
     0
290
     0
174
     0
 93
        1
 44
0.0
173
     0
291
     1
 45
0.0
1001
ACAD
1000
AcDbSavedByObjectVersion
1070
     0
1000
AcDbSavedByObjectVersion
1070
     0
  0
VISUALSTYLE
  5
5F2C
102
{ACAD_REACTORS
330
5F23
102
}
330
5F23
100
AcDbVisualStyle
  2
Conceptual
 70
     9
 71
     3
 72
     2
 73
     0
 90
        0
 40
-0.6
 41
-30.0
 62
     5
 63
     7
 74
     2
 91
        2
 64
     7
 65
   257
 75
     1
175
     1
 42
40.0
 92
        8
 66
     7
 43
1.0
 76
     1
 77
     6
 78
     2
 67
     7
 79
     3
170
     0
171
     0
290
     0
174
     0
 93
        1
 44
0.0
173
     0
291
     0
 45
0.0
1001
ACAD
1000
AcDbSavedByObjectVersion
1070
     0
1000
AcDbSavedByObjectVersion
1070
     0
  0
VISUALSTYLE
  5
5F2E
102
{ACAD_REACTORS
330
5F23
102
}
330
5F23
100
AcDbVisualStyle
  2
Dim
 70
    11
 71
     2
 72
     2
 73
     0
 90
        0
 40
-0.6
 41
-30.0
 62
     5
 63
     7
 74
     1
 91
        4
 64
     7
 65
   257
 75
     1
175
     1
 42
1.0
 92
        8
 66
     7
 43
1.0
 76
     1
 77
     6
 78
     2
 67
     7
 79
     5
170
     0
171
     0
290
     0
174
     0
 93
        1
 44
-50.0
173
     0
291
     1
 45
0.0
1001
ACAD
1000
AcDbSavedByObjectVersion
1070
     0
1000
AcDbSavedByObjectVersion
1070
     0
  0
VISUALSTYLE
  5
5F32
102
{ACAD_REACTORS
330
5F23
102
}
330
5F23
100
AcDbVisualStyle
  2
Facepattern
 70
    15
 71
     2
 72
     2
 73
     0
 90
        0
 40
-0.6
 41
-30.0
 62
     5
 63
     7
 74
     1
 91
        4
 64
     7
 65
   257
 75
     1
175
     1
 42
1.0
 92
        8
 66
     7
 43
1.0
 76
     1
 77
     6
 78
     2
 67
     7
 79
     5
170
     0
171
     0
290
     0
174
     0
 93
        1
 44
0.0
173
     0
291
     1
 45
0.0
1001
ACAD
1000
AcDbSavedByObjectVersion
1070
     0
1000
AcDbSavedByObjectVersion
1070
     0
  0
VISUALSTYLE
  5
5F24
102
{ACAD_REACTORS
330
5F23
102
}
330
5F23
100
AcDbVisualStyle
  2
Flat
 70
     0
 71
     2
 72
     1
 73
     1
 90
        2
 40
-0.6
 41
30.0
 62
     5
 63
     7
 74
     0
 91
        4
 64
     7
 65
   257
 75
     1
175
     1
 42
1.0
 92
        8
 66
     7
 43
1.0
 76
     1
 77
     6
 78
     2
 67
     7
 79
     5
170
     0
171
     0
290
     0
174
     0
 93
       13
 44
0.0
173
     0
291
     1
 45
0.0
1001
ACAD
1000
AcDbSavedByObjectVersion
1070
     0
1000
AcDbSavedByObjectVersion
1070
     0
  0
VISUALSTYLE
  5
5F25
102
{ACAD_REACTORS
330
5F23
102
}
330
5F23
100
AcDbVisualStyle
  2
FlatWithEdges
 70
     1
 71
     2
 72
     1
 73
     1
 90
        2
 40
-0.6
 41
30.0
 62
     5
 63
     7
 74
     1
 91
        4
 64
     7
 65
   257
 75
     1
175
     1
 42
1.0
 92
        0
 66
   257
 43
1.0
 76
     1
 77
     6
 78
     2
 67
     7
 79
     5
170
     0
171
     0
290
     0
174
     0
 93
       13
 44
0.0
173
     0
291
     1
 45
0.0
1001
ACAD
1000
AcDbSavedByObjectVersion
1070
     0
1000
AcDbSavedByObjectVersion
1070
     0
  0
VISUALSTYLE
  5
5F26
102
{ACAD_REACTORS
330
5F23
102
}
330
5F23
100
AcDbVisualStyle
  2
Gouraud
 70
     2
 71
     2
 72
     2
 73
     1
 90
        2
 40
-0.6
 41
30.0
 62
     5
 63
     7
 74
     0
 91
        4
 64
     7
 65
   257
 75
     1
175
     1
 42
1.0
 92
        0
 66
     7
 43
1.0
 76
     1
 77
     6
 78
     2
 67
     7
 79
     5
170
     0
171
     0
290
     0
174
     0
 93
       13
 44
0.0
173
     0
291
     1
 45
0.0
1001
ACAD
1000
AcDbSavedByObjectVersion
1070
     0
1000
AcDbSavedByObjectVersion
1070
     0
  0
VISUALSTYLE
  5
5F27
102
{ACAD_REACTORS
330
5F23
102
}
330
5F23
100
AcDbVisualStyle
  2
GouraudWithEdges
 70
     3
 71
     2
 72
     2
 73
     1
 90
        2
 40
-0.6
 41
30.0
 62
     5
 63
     7
 74
     1
 91
        4
 64
     7
 65
   257
 75
     1
175
     1
 42
1.0
 92
        0
 66
   257
 43
1.0
 76
     1
 77
     6
 78
     2
 67
     7
 79
     5
170
     0
171
     0
290
     0
174
     0
 93
       13
 44
0.0
173
     0
291
     1
 45
0.0
1001
ACAD
1000
AcDbSavedByObjectVersion
1070
     0
1000
AcDbSavedByObjectVersion
1070
     0
  0
VISUALSTYLE
  5
5F31
102
{ACAD_REACTORS
330
5F23
102
}
330
5F23
100
AcDbVisualStyle
  2
Linepattern
 70
    14
 71
     2
 72
     2
 73
     0
 90
        0
 40
-0.6
 41
-30.0
 62
     5
 63
     7
 74
     1
 91
        4
 64
     7
 65
   257
 75
     7
175
     7
 42
1.0
 92
        8
 66
     7
 43
1.0
 76
     1
 77
     6
 78
     2
 67
     7
 79
     5
170
     0
171
     0
290
     0
174
     0
 93
        1
 44
0.0
173
     0
291
     1
 45
0.0
1001
ACAD
1000
AcDbSavedByObjectVersion
1070
     0
1000
AcDbSavedByObjectVersion
1070
     0
  0
VISUALSTYLE
  5
5F2D
102
{ACAD_REACTORS
330
5F23
102
}
330
5F23
100
AcDbVisualStyle
  2
Realistic
 70
     8
 71
     2
 72
     2
 73
     0
 90
        0
 40
-0.6
 41
-30.0
 62
     5
 63
     7
 74
     1
 91
        0
 64
     7
 65
   257
 75
     1
175
     1
 42
1.0
 92
        8
 66
     8
 43
1.0
 76
     1
 77
     6
 78
     2
 67
     7
 79
     5
170
     0
171
     0
290
     0
174
     0
 93
       13
 44
0.0
173
     0
291
     0
 45
0.0
1001
ACAD
1000
AcDbSavedByObjectVersion
1070
     0
1000
AcDbSavedByObjectVersion
1070
     0
  0
VISUALSTYLE
  5
5F30
102
{ACAD_REACTORS
330
5F23
102
}
330
5F23
100
AcDbVisualStyle
  2
Thicken
 70
    13
 71
     2
 72
     2
 73
     0
 90
        0
 40
-0.6
 41
-30.0
 62
     5
 63
     7
 74
     1
 91
        4
 64
     7
 65
   257
 75
     1
175
     1
 42
1.0
 92
       12
 66
     7
 43
1.0
 76
     1
 77
     6
 78
     2
 67
     7
 79
     5
170
     0
171
     0
290
     0
174
     0
 93
        1
 44
0.0
173
     0
291
     1
 45
0.0
1001
ACAD
1000
AcDbSavedByObjectVersion
1070
     0
1000
AcDbSavedByObjectVersion
1070
     0
  0
DICTIONARYVAR
  5
6105
102
{ACAD_REACTORS
330
6102
102
}
330
6102
100
DictionaryVariables
280
     0
  1
1:1
  0
DICTIONARYVAR
  5
6104
102
{ACAD_REACTORS
330
6102
102
}
330
6102
100
DictionaryVariables
280
     0
  1
STANDARD
  0
DICTIONARYVAR
  5
6103
102
{ACAD_REACTORS
330
6102
102
}
330
6102
100
DictionaryVariables
280
     0
  1
STANDARD
  0
DICTIONARYVAR
  5
6108
102
{ACAD_REACTORS
330
6102
102
}
330
6102
100
DictionaryVariables
280
     0
  1
1
  0
DICTIONARYVAR
  5
6107
102
{ACAD_REACTORS
330
6102
102
}
330
6102
100
DictionaryVariables
280
     0
  1
0
  0
DICTIONARYVAR
  5
6106
102
{ACAD_REACTORS
330
6102
102
}
330
6102
100
DictionaryVariables
280
     0
  1
127
  0
VLO-VL
  5
60F3
102
{ACAD_REACTORS
330
60F2
102
}
330
60F2
100
vlo_VL
 90
   -64512
 91
       12
 92
        1
 40
2.5
300
(&VLO-R . 0)
  0
DICTIONARY
  5
7468
330
5F71
100
AcDbDictionary
280
     1
281
     1
  3
ACAD_XREC_ROUNDTRIP
360
7469
  0
DICTIONARY
  5
7466
330
5F6D
100
AcDbDictionary
280
     1
281
     1
  3
ACAD_XREC_ROUNDTRIP
360
7467
  0
DICTIONARY
  5
5F14
330
5F13
100
AcDbDictionary
280
     1
281
     1
  3
ACAD_XREC_ROUNDTRIP
360
6F73
  3
BUMPTILE
360
5F16
  3
DIFFUSETILE
360
5F15
  3
OPACITYTILE
360
5F19
  3
REFLECTIONTILE
360
5F18
  3
REFRACTIONTILE
360
5F1A
  3
SPECULARTILE
360
5F17
  0
DICTIONARY
  5
5F0C
330
5F0B
100
AcDbDictionary
280
     1
281
     1
  3
ACAD_XREC_ROUNDTRIP
360
6F72
  3
BUMPTILE
360
5F0E
  3
DIFFUSETILE
360
5F0D
  3
OPACITYTILE
360
5F11
  3
REFLECTIONTILE
360
5F10
  3
REFRACTIONTILE
360
5F12
  3
SPECULARTILE
360
5F0F
  0
DICTIONARY
  5
5F1C
330
5F1B
100
AcDbDictionary
280
     1
281
     1
  3
ACAD_XREC_ROUNDTRIP
360
6F74
  3
BUMPTILE
360
5F1E
  3
DIFFUSETILE
360
5F1D
  3
OPACITYTILE
360
5F21
  3
REFLECTIONTILE
360
5F20
  3
REFRACTIONTILE
360
5F22
  3
SPECULARTILE
360
5F1F
  0
DICTIONARY
  5
6F6E
330
5F66
100
AcDbDictionary
280
     1
281
     1
  3
ACAD_ROUNDTRIP_2008_TABLESTYLE_CELLSTYLEMAP
360
745F
  3
ACAD_XREC_ROUNDTRIP
360
7465
  0
XRECORD
  5
7469
102
{ACAD_REACTORS
330
7468
102
}
330
7468
100
AcDbXrecord
280
     1
102
SHADEPLOT
 70
     0
102
SHADEPLOTRESLEVEL
 70
     2
102
SHADEPLOTCUSTOMDPI
 70
   300
  0
XRECORD
  5
7467
102
{ACAD_REACTORS
330
7466
102
}
330
7466
100
AcDbXrecord
280
     1
102
SHADEPLOT
 70
     0
102
SHADEPLOTRESLEVEL
 70
     2
102
SHADEPLOTCUSTOMDPI
 70
   300
  0
XRECORD
  5
6F73
102
{ACAD_REACTORS
330
5F14
102
}
330
5F14
100
AcDbXrecord
280
     1
102
MATERIAL
148
0.0
149
0.0
149
0.0
 93
        0
 94
      127
282
     0
 72
     0
 77
     0
171
     0
175
     0
179
     0
273
     0
  0
XRECORD
  5
5F16
102
{ACAD_REACTORS
330
5F14
102
}
330
5F14
100
AcDbXrecord
280
     1
270
     1
271
     1
  0
XRECORD
  5
5F15
102
{ACAD_REACTORS
330
5F14
102
}
330
5F14
100
AcDbXrecord
280
     1
270
     1
271
     1
  0
XRECORD
  5
5F19
102
{ACAD_REACTORS
330
5F14
102
}
330
5F14
100
AcDbXrecord
280
     1
270
     1
271
     1
  0
XRECORD
  5
5F18
102
{ACAD_REACTORS
330
5F14
102
}
330
5F14
100
AcDbXrecord
280
     1
270
     1
271
     1
  0
XRECORD
  5
5F1A
102
{ACAD_REACTORS
330
5F14
102
}
330
5F14
100
AcDbXrecord
280
     1
270
     1
271
     1
  0
XRECORD
  5
5F17
102
{ACAD_REACTORS
330
5F14
102
}
330
5F14
100
AcDbXrecord
280
     1
270
     1
271
     1
  0
XRECORD
  5
6F72
102
{ACAD_REACTORS
330
5F0C
102
}
330
5F0C
100
AcDbXrecord
280
     1
102
MATERIAL
148
0.0
149
0.0
149
0.0
 93
        0
 94
      127
282
     0
 72
     0
 77
     0
171
     0
175
     0
179
     0
273
     0
  0
XRECORD
  5
5F0E
102
{ACAD_REACTORS
330
5F0C
102
}
330
5F0C
100
AcDbXrecord
280
     1
270
     1
271
     1
  0
XRECORD
  5
5F0D
102
{ACAD_REACTORS
330
5F0C
102
}
330
5F0C
100
AcDbXrecord
280
     1
270
     1
271
     1
  0
XRECORD
  5
5F11
102
{ACAD_REACTORS
330
5F0C
102
}
330
5F0C
100
AcDbXrecord
280
     1
270
     1
271
     1
  0
XRECORD
  5
5F10
102
{ACAD_REACTORS
330
5F0C
102
}
330
5F0C
100
AcDbXrecord
280
     1
270
     1
271
     1
  0
XRECORD
  5
5F12
102
{ACAD_REACTORS
330
5F0C
102
}
330
5F0C
100
AcDbXrecord
280
     1
270
     1
271
     1
  0
XRECORD
  5
5F0F
102
{ACAD_REACTORS
330
5F0C
102
}
330
5F0C
100
AcDbXrecord
280
     1
270
     1
271
     1
  0
XRECORD
  5
6F74
102
{ACAD_REACTORS
330
5F1C
102
}
330
5F1C
100
AcDbXrecord
280
     1
102
MATERIAL
148
0.0
149
0.0
149
0.0
 93
        0
 94
      127
282
     0
 72
     0
 77
     0
171
     0
175
     0
179
     0
273
     0
  0
XRECORD
  5
5F1E
102
{ACAD_REACTORS
330
5F1C
102
}
330
5F1C
100
AcDbXrecord
280
     1
270
     1
271
     1
  0
XRECORD
  5
5F1D
102
{ACAD_REACTORS
330
5F1C
102
}
330
5F1C
100
AcDbXrecord
280
     1
270
     1
271
     1
  0
XRECORD
  5
5F21
102
{ACAD_REACTORS
330
5F1C
102
}
330
5F1C
100
AcDbXrecord
280
     1
270
     1
271
     1
  0
XRECORD
  5
5F20
102
{ACAD_REACTORS
330
5F1C
102
}
330
5F1C
100
AcDbXrecord
280
     1
270
     1
271
     1
  0
XRECORD
  5
5F22
102
{ACAD_REACTORS
330
5F1C
102
}
330
5F1C
100
AcDbXrecord
280
     1
270
     1
271
     1
  0
XRECORD
  5
5F1F
102
{ACAD_REACTORS
330
5F1C
102
}
330
5F1C
100
AcDbXrecord
280
     1
270
     1
271
     1
  0
CELLSTYLEMAP
  5
745F
102
{ACAD_REACTORS
330
6F6E
102
}
330
6F6E
100
AcDbCellStyleMap
 90
        3
300
CELLSTYLE
  1
TABLEFORMAT_BEGIN
 90
        5
170
     1
 91
        0
 92
    32768
 62
   257
 93
        1
300
CONTENTFORMAT
  1
CONTENTFORMAT_BEGIN
 90
        0
 91
        0
 92
      512
 93
        0
300

 40
0.0
140
1.0
 94
        5
 62
     0
340
5F57
144
0.25
309
CONTENTFORMAT_END
171
     1
301
MARGIN
  1
CELLMARGIN_BEGIN
 40
0.06
 40
0.06
 40
0.06
 40
0.06
 40
0.18
 40
0.18
309
CELLMARGIN_END
 94
        6
 95
        1
302
GRIDFORMAT
  1
GRIDFORMAT_BEGIN
 90
        0
 91
        1
 62
     0
 92
       -2
340
0
 93
        0
 40
0.045
309
GRIDFORMAT_END
 95
        2
302
GRIDFORMAT
  1
GRIDFORMAT_BEGIN
 90
        0
 91
        1
 62
     0
 92
       -2
340
0
 93
        0
 40
0.045
309
GRIDFORMAT_END
 95
        4
302
GRIDFORMAT
  1
GRIDFORMAT_BEGIN
 90
        0
 91
        1
 62
     0
 92
       -2
340
0
 93
        0
 40
0.045
309
GRIDFORMAT_END
 95
        8
302
GRIDFORMAT
  1
GRIDFORMAT_BEGIN
 90
        0
 91
        1
 62
     0
 92
       -2
340
0
 93
        0
 40
0.045
309
GRIDFORMAT_END
 95
       16
302
GRIDFORMAT
  1
GRIDFORMAT_BEGIN
 90
        0
 91
        1
 62
     0
 92
       -2
340
0
 93
        0
 40
0.045
309
GRIDFORMAT_END
 95
       32
302
GRIDFORMAT
  1
GRIDFORMAT_BEGIN
 90
        0
 91
        1
 62
     0
 92
       -2
340
0
 93
        0
 40
0.045
309
GRIDFORMAT_END
309
TABLEFORMAT_END
  1
CELLSTYLE_BEGIN
 90
        1
 91
        1
300
_TITLE
309
CELLSTYLE_END
300
CELLSTYLE
  1
TABLEFORMAT_BEGIN
 90
        5
170
     1
 91
        0
 92
        0
 62
   257
 93
        1
300
CONTENTFORMAT
  1
CONTENTFORMAT_BEGIN
 90
        0
 91
        0
 92
      512
 93
        0
300

 40
0.0
140
1.0
 94
        5
 62
     0
340
5F57
144
0.18
309
CONTENTFORMAT_END
171
     1
301
MARGIN
  1
CELLMARGIN_BEGIN
 40
0.06
 40
0.06
 40
0.06
 40
0.06
 40
0.18
 40
0.18
309
CELLMARGIN_END
 94
        6
 95
        1
302
GRIDFORMAT
  1
GRIDFORMAT_BEGIN
 90
        0
 91
        1
 62
     0
 92
       -2
340
0
 93
        0
 40
0.045
309
GRIDFORMAT_END
 95
        2
302
GRIDFORMAT
  1
GRIDFORMAT_BEGIN
 90
        0
 91
        1
 62
     0
 92
       -2
340
0
 93
        0
 40
0.045
309
GRIDFORMAT_END
 95
        4
302
GRIDFORMAT
  1
GRIDFORMAT_BEGIN
 90
        0
 91
        1
 62
     0
 92
       -2
340
0
 93
        0
 40
0.045
309
GRIDFORMAT_END
 95
        8
302
GRIDFORMAT
  1
GRIDFORMAT_BEGIN
 90
        0
 91
        1
 62
     0
 92
       -2
340
0
 93
        0
 40
0.045
309
GRIDFORMAT_END
 95
       16
302
GRIDFORMAT
  1
GRIDFORMAT_BEGIN
 90
        0
 91
        1
 62
     0
 92
       -2
340
0
 93
        0
 40
0.045
309
GRIDFORMAT_END
 95
       32
302
GRIDFORMAT
  1
GRIDFORMAT_BEGIN
 90
        0
 91
        1
 62
     0
 92
       -2
340
0
 93
        0
 40
0.045
309
GRIDFORMAT_END
309
TABLEFORMAT_END
  1
CELLSTYLE_BEGIN
 90
        2
 91
        1
300
_HEADER
309
CELLSTYLE_END
300
CELLSTYLE
  1
TABLEFORMAT_BEGIN
 90
        5
170
     1
 91
        0
 92
        0
 62
   257
 93
        1
300
CONTENTFORMAT
  1
CONTENTFORMAT_BEGIN
 90
        0
 91
        0
 92
      512
 93
        0
300

 40
0.0
140
1.0
 94
        2
 62
     0
340
5F57
144
0.18
309
CONTENTFORMAT_END
171
     1
301
MARGIN
  1
CELLMARGIN_BEGIN
 40
0.06
 40
0.06
 40
0.06
 40
0.06
 40
0.18
 40
0.18
309
CELLMARGIN_END
 94
        6
 95
        1
302
GRIDFORMAT
  1
GRIDFORMAT_BEGIN
 90
        0
 91
        1
 62
     0
 92
       -2
340
0
 93
        0
 40
0.045
309
GRIDFORMAT_END
 95
        2
302
GRIDFORMAT
  1
GRIDFORMAT_BEGIN
 90
        0
 91
        1
 62
     0
 92
       -2
340
0
 93
        0
 40
0.045
309
GRIDFORMAT_END
 95
        4
302
GRIDFORMAT
  1
GRIDFORMAT_BEGIN
 90
        0
 91
        1
 62
     0
 92
       -2
340
0
 93
        0
 40
0.045
309
GRIDFORMAT_END
 95
        8
302
GRIDFORMAT
  1
GRIDFORMAT_BEGIN
 90
        0
 91
        1
 62
     0
 92
       -2
340
0
 93
        0
 40
0.045
309
GRIDFORMAT_END
 95
       16
302
GRIDFORMAT
  1
GRIDFORMAT_BEGIN
 90
        0
 91
        1
 62
     0
 92
       -2
340
0
 93
        0
 40
0.045
309
GRIDFORMAT_END
 95
       32
302
GRIDFORMAT
  1
GRIDFORMAT_BEGIN
 90
        0
 91
        1
 62
     0
 92
       -2
340
0
 93
        0
 40
0.045
309
GRIDFORMAT_END
309
TABLEFORMAT_END
  1
CELLSTYLE_BEGIN
 90
        3
 91
        2
300
_DATA
309
CELLSTYLE_END
  0
XRECORD
  5
7465
102
{ACAD_REACTORS
330
6F6E
102
}
330
6F6E
100
AcDbXrecord
280
     1
102
ACAD_ROUNDTRIP_PRE2007_TABLESTYLE
 90
      512
 91
        0
  1

 92
      512
 93
        0
  2

 94
      512
 95
        0
  3

  0
ENDSEC
  0
EOF
